Биатлон. Чемпионат Мира 2019. Эстерсунд (Швеция). Мужчины. Гонка преследования 12,5 км [Первый Канал] [10.03] (2019) HDTV 1080i

 
 Статистика раздачи 
Размер: 3.35 ГБ   |  Зарегистрирован: 10 мар 2019, 19:21   |   .torrent скачан: 0 раз
Сидеров: 1  [ 0 байт/сек ]     Личеров: 0  [ 0 байт/сек ]  
  

Биатлон. Чемпионат Мира 2019. Эстерсунд (Швеция). Мужчины. Гонка преследования 12,5 км [Первый Канал] [10.03] (2019) HDTV 1080i

Сообщение Nasty » 10 мар 2019, 19:41

Чемпионат Мира 2019. Эстерсунд (Швеция)
Мужчины. Гонка преследования 12,5 км


Вид спорта: Биатлон
Комментарий: Профессиональный
Язык комментариев: Русский (Дмитрий Терехов, Николай Круглов, Антон Шипулин)


Описание: Чемпионат Мира 2019. Эстерсунд (Швеция). Мужчины. Гонка преследования 12,5 км.


Автор рипа: Настольный теннисист

Качество: HDTV
Формат: TS
Видео кодек: AVC
Аудио кодек: AC3/MP2
Видео: MPEG4 Video (H264) 1920x1080 (16:9) 25fps 11000kbps
Аудио 1: Dolby AC3 48000Hz 6ch 384kbps
Аудио 2: MPEG Audio 48000Hz stereo 192kbps




00:39:18


Код: Выделить всё
General
ID                                       : 1 (0x1)
Complete name                            : Y:торрентБиатлон. ЧМ-2019. Мужчины. Гонка преследования 12,5 км.ts
Format                                   : MPEG-TS
File size                                : 3.34 GiB
Duration                                 : 39 min 18 s
Overall bit rate mode                    : Variable
Overall bit rate                         : 12.2 Mb/s

Video
ID                                       : 205 (0xCD)
Menu ID                                  : 20105 (0x4E89)
Format                                   : AVC
Format/Info                              : Advanced Video Codec
Format profile                           : High@L4
Format settings                          : CABAC / 4 Ref Frames
Format settings, CABAC                   : Yes
Format settings, RefFrames               : 4 frames
Format settings, GOP                     : M=4, N=28
Codec ID                                 : 27
Duration                                 : 39 min 18 s
Bit rate                                 : 11.0 Mb/s
Width                                    : 1 920 pixels
Height                                   : 1 080 pixels
Display aspect ratio                     : 16:9
Frame rate                               : 25.000 FPS
Standard                                 : Component
Color space                              : YUV
Chroma subsampling                       : 4:2:0
Bit depth                                : 8 bits
Scan type                                : Interlaced
Scan type, store method                  : Separated fields
Scan order                               : Top Field First
Bits/(Pixel*Frame)                       : 0.212
Stream size                              : 3.02 GiB (90%)
Color range                              : Limited
Color primaries                          : BT.709
Transfer characteristics                 : BT.709
Matrix coefficients                      : BT.709

Audio #1
ID                                       : 305 (0x131)
Menu ID                                  : 20105 (0x4E89)
Format                                   : AC-3
Format/Info                              : Audio Coding 3
Commercial name                          : Dolby Digital
Codec ID                                 : 6
Duration                                 : 39 min 18 s
Bit rate mode                            : Constant
Bit rate                                 : 384 kb/s
Channel(s)                               : 6 channels
Channel layout                           : L R C LFE Ls Rs
Sampling rate                            : 48.0 kHz
Frame rate                               : 31.250 FPS (1536 SPF)
Bit depth                                : 16 bits
Compression mode                         : Lossy
Stream size                              : 108 MiB (3%)
Language                                 : Russian
Service kind                             : Complete Main

Audio #2
ID                                       : 306 (0x132)
Menu ID                                  : 20105 (0x4E89)
Format                                   : MPEG Audio
Format version                           : Version 1
Format profile                           : Layer 2
Codec ID                                 : 3
Duration                                 : 39 min 18 s
Bit rate mode                            : Constant
Bit rate                                 : 192 kb/s
Channel(s)                               : 2 channels
Sampling rate                            : 48.0 kHz
Frame rate                               : 41.667 FPS (1152 SPF)
Compression mode                         : Lossy
Stream size                              : 54.0 MiB (2%)
Language                                 : Russian


 
Не забывайте говорить Спасибо. Не уходите с раздачи!   
Торрент: Зарегистрирован [10 мар 2019, 19:21] Скачать торрент
Скачать торрент
[ Размер 17.71 КБ / Просмотров 2 ]
Статус:
Проверен
 
.torrent скачан: 0 раз
Хэш: 0ebe4421bfc9ee0ed688a994f5ca7ef4b9a24cb0
Размер: 3.35 ГБ (3 596 793 816 байт)
Стать Автором раздачи
 
 
Раздал: 100 ГБ
Скачал: 0 байт
Ратио: Seed.
Сообщения: 38384
Зарегистрирован: 09 апр 2015, 19:56


  • Похожие торренты
    Ответы
    Просмотры
    Последнее сообщение

Вернуться в Спорт и здоровье (Спортивные турниры, фильмы и передачи etc)

Ресурс не предоставляет электронные версии произведений, а занимается лишь коллекционированием и каталогизацией ссылок, присылаемых и публикуемых на форуме нашими читателями. Если вы являетесь правообладателем какого-либо представленного материала и не желаете чтобы ссылка на него находилась в нашем каталоге, свяжитесь с нами и мы незамедлительно удалим её. Файлы для обмена на трекере предоставлены пользователями сайта, и администрация не несёт ответственности за их содержание. Просьба не заливать файлы, защищенные авторскими правами, а также файлы нелегального содержания!
cron