Чикаго в огне / Пожарные Чикаго / Chicago Fire [07x01-13 из 22] (2018) WEB-DLRip 1080p | По версии Шадинского

 
 Статистика раздачи 
Размер: 41.13 ГБ   |  Зарегистрирован: 14 фев 2019, 09:16   |   .torrent скачан: 0 раз
Сидеров: 1  [ 0 байт/сек ]     Личеров: 0  [ 0 байт/сек ]  
  

Чикаго в огне / Пожарные Чикаго / Chicago Fire [07x01-13 из 22] (2018) WEB-DLRip 1080p | По версии Шадинского

Сообщение apple2000 » 14 фев 2019, 10:01

Название: Пожарные Чикаго / Чикаго в Огне
Оригинальное название: Chicago Fire
Год выхода: 2018
Страна: США
Жанр: Драма
Режиссер: Джо Чаппелль
В ролях: Джесси Спенсер, Тейлор Кинни, Имонн Уолкер, Моника Реймунд, Лорен Джерман, Чарли Барнетт, Дэвид Эйденберг, Тери Ривз, Юрий Сардаров, Мэтт Галлини

Описание: Сериал рассказывает о самой тяжелой и опасной работе — пожарных и спасателей чикагского отделения Firehouse 51. Несмотря на повседневные геройства мужчин и женщин, их огромная самоотдача приводит к личным потерям. Главный герой Мэтью Кейси, прирожденный лидер и настоящий пожарный. Однако расставание с девушкой заставляет его взглянуть по-новому на многие вещи. Кроме этого, Кейси постоянно находится в конфронтации с другим членом своей команды — лейтенантом Келли Северайдом.



Качество: WEB-DLRip 1080p
Кодек: AVC (h264), High@L4
Видео: 1920x1080 (1.77:1), 23.976 fps, ~9065 kbps
Аудио: Rus / 48 kHz, AC3 Dolby Digital, 3/2 (L,C,R,l,r) + LFE ch, ~640 kbps avg
Продолжительность: ~ 00:41:00
Перевод: Любительский (одноголосный) - Денис Шадинский
Сведение 5.1: dilnix

Семпл

Внимание! Присутствует реклама!

При каждом добавлении создаётся новый торрент. Чтобы начать докачку новой серии, пользователям необходимо сделать следующее:
(1) остановить скачивание,
(2) удалить старый торрент у себя из клиента (старые серии удалять не надо),
(3) скачать новый торрент и запустить его у себя в клиенте вместо старого, при этом указать клиенту путь в старую папку куда и должно происходить скачивание новых серий.

Ваш клиент при этом должен произвести хеширование (проверку) старой папки (если не производит сам - помогите ему сделать это), и будет докачивать только те серии которых у вас ещё нет. Старые серии при этом не удаляются, а продолжают раздаваться!

Eсли вы уже удалили старые серии, то предотвратить повторную закачку старых серий можно, отжав галочку в соответствующих местах при запуске нового торрента. По возможности, желательно не удалять старые серии как можно дольше, чтобы релизёр не столько продолжал раздавать старые серии, а смог сконцентрироваться на новых.

Внимание! Данная раздача является авторской. Источником основного видеоряда являются релизы AMZN.WEB-DL 1080p от KINGS. Добавление заранее подготовленных видео вставок от автора озвучки происходит без перекодировки основного видеоряда, в режиме COPY. Несмотря на это, информация контейнера при таком добавлении всё равно меняется, что нужно учитывать.
Автор проекта и озвучки, Денис Шадинский, благодарит всех ценителей Чикагских сериалов, и особенно тех, кто спонсировал осуществление озвучки.
General
Unique ID : 185051641004166690996708844195766048620 (0x8B37A650901993A6D4013475EC0B976C)
Complete name : Chicago.Fire.S07E01.A.Closer.Eye.1080p.AMZN.WEB-DL.Rus[shad_6ch].mkv
Format : Matroska
Format version : Version 4
File size : 2.86 GiB
Duration : 41 min 23 s
Overall bit rate : 9 903 kb/s
Writing application : Lavf58.12.100
Writing library : Lavf58.12.100
ErrorDetectionType : Per level 1

Video
ID : 1
Format : AVC
Format/Info : Advanced Video Codec
Format profile : High@L4
Format settings : CABAC / 4 Ref Frames
Format settings, CABAC : Yes
Format settings, ReFrames : 4 frames
Codec ID : V_MPEG4/ISO/AVC
Duration : 41 min 23 s
Bit rate : 9 065 kb/s
Width : 1 920 pixels
Height : 1 080 pixels
Display aspect ratio : 16:9
Frame rate mode : Variable
Color space : YUV
Chroma subsampling : 4:2:0
Bit depth : 8 bits
Scan type : Progressive
Stream size : 2.62 GiB (92%)
Writing library : x264 core 155 r2917 0a84d98
Encoding settings : cabac=1 / ref=3 / deblock=1:0:0 / analyse=0x3:0x113 / me=hex / subme=7 / psy=1 / psy_rd=1,00:0,00 / mixed_ref=1 / me_range=16 / chroma_me=1 / trellis=1 / 8x8dct=1 / cqm=0 / deadzone=21,11 / fast_pskip=1 / chroma_qp_offset=-2 / threads=6 / lookahead_threads=1 / sliced_threads=0 / nr=0 / decimate=1 / interlaced=0 / bluray_compat=0 / constrained_intra=0 / bframes=3 / b_pyramid=2 / b_adapt=1 / b_bias=0 / direct=1 / weightb=1 / open_gop=0 / weightp=2 / keyint=119 / keyint_min=11 / scenecut=40 / intra_refresh=0 / rc_lookahead=40 / rc=crf / mbtree=1 / crf=16,0 / qcomp=0,60 / qpmin=0 / qpmax=69 / qpstep=4 / ip_ratio=1,40 / aq=1:1,00
Default : Yes
Forced : No
Color range : Limited
Transfer characteristics : BT.709
Matrix coefficients : BT.709

Audio
ID : 2
Format : AC-3
Format/Info : Audio Coding 3
Commercial name : Dolby Digital
Codec ID : A_AC3
Duration : 41 min 22 s
Bit rate mode : Constant
Bit rate : 640 kb/s
Channel(s) : 6 channels
Channel layout : L R C LFE Ls Rs
Sampling rate : 48.0 kHz
Frame rate : 31.250 FPS (1536 SPF)
Bit depth : 16 bits
Compression mode : Lossy
Stream size : 189 MiB (6%)
Language : Russian
Service kind : Complete Main
Default : Yes
Forced : No
 
Не забывайте говорить Спасибо. Не уходите с раздачи!   
Торрент: Зарегистрирован [14 фев 2019, 09:16] Скачать торрент
Скачать торрент
[ Размер 207.86 КБ / Просмотров 3 ]
Статус:
Проверен
 
.torrent скачан: 0 раз
Хэш: 0c45cd49895a4c274eff824217e1fb75ab61cec2
Размер: 41.13 ГБ (44 161 601 661 байт)
Стать Автором раздачи
 
 
Раздал: 0 байт
Скачал: 0 байт
Ратио: Inf.
Сообщения: 43760
Зарегистрирован: 05 окт 2014, 15:23


  • Похожие торренты
    Ответы
    Просмотры
    Последнее сообщение

Вернуться в Сериалы

Ресурс не предоставляет электронные версии произведений, а занимается лишь коллекционированием и каталогизацией ссылок, присылаемых и публикуемых на форуме нашими читателями. Если вы являетесь правообладателем какого-либо представленного материала и не желаете чтобы ссылка на него находилась в нашем каталоге, свяжитесь с нами и мы незамедлительно удалим её. Файлы для обмена на трекере предоставлены пользователями сайта, и администрация не несёт ответственности за их содержание. Просьба не заливать файлы, защищенные авторскими правами, а также файлы нелегального содержания!
cron