Покер. Турнирный мастер-класс с помощью Raise Your Edge (2017) IPTVRip 1080р

 
 Статистика раздачи 
Размер: 14.46 ГБ   |  Зарегистрирован: 24 янв 2019, 17:39   |   .torrent скачан: 0 раз
Сидеров: 1  [ 0 байт/сек ]     Личеров: 0  [ 0 байт/сек ]  
  

Покер. Турнирный мастер-класс с помощью Raise Your Edge (2017) IPTVRip 1080р

Сообщение explosiveone » 24 янв 2019, 18:16

Турнирный мастер-класс с помощью Raise Your Edge. bencb789 / Poker Tournament Masterclass with Raise Your Edge


Автор: bencb789
Страна: Швеция
Тематика: турниры, покер
Тип раздаваемого материала: Видеоурок
Продолжительность: 31:10:46
Год выпуска: 2017

Язык: Русский
Перевод: Профессиональный (одноголосый)

Описание: Вы решили посвятить свою жизнь Покеру и хотите приложить необходимые усилия для того, чтобы бить все лимиты вплоть до самых высоких? Тогда я искренне уверен в том, что Турнирный Мастер-класс – это лучший из возможных путей развития, и я сочту за честь быть вашим тренером!

Я известен под ником bencb789, и в течение последних 6 лет я изучаю Покер как игру и искусство. Мой выигрыш в онлайне составляет миллионы долларов, и – да! – я продолжаю играть! Но, помимо увлечения покером, у меня есть и страсть к образованию, и поэтому я создал этот Мастер-класс для всех игроков.

Я хочу, чтобы мои ученики многократно преумножили свои вложения. Поэтому если вы уже знаете основы покерной стратегии, я научу вас всему остальному, чтобы вы начали как можно раньше получать хотя бы четырёхзначный (в долларах) побочный доход от покера, а затем со временем стали бы доминировать на самых высоких лимитах. У меня нет от вас никаких секретов, и я постоянно обновляю свой курс. При этом все материалы будут доступны вам после единовременного платежа!

Доп. информация: у автора курса в продаже два уровня: "Apprentice Class" и "Expert Class", в раздаче - второй. За материал благодарим пользователя Seedish, мной была просто дооформлена раздача.

Качество: HDRip
Формат: MPG
Видео кодек: H.264
Аудио кодек: AAC

General
Complete name : TournMasterClass-22_HU_Preflop.mp4
Format : MPEG-4
Format profile : Base Media
Codec ID : isom (isom/iso2/avc1/mp41)
File size : 526 MiB
Duration : 1 h 7 min
Overall bit rate : 1 092 kb/s
Encoded date : UTC 2017-08-25 16:55:31
Tagged date : UTC 2017-08-25 16:55:31
Writing application : Open Broadcaster Software v0.659b

Video
ID : 2
Format : AVC
Format/Info : Advanced Video Codec
Format profile : High@L4
Format settings : CABAC / 4 Ref Frames
Format settings, CABAC : Yes
Format settings, RefFrames : 4 frames
Muxing mode : Container profile=High@3.1
Codec ID : avc1
Codec ID/Info : Advanced Video Coding
Duration : 1 h 7 min
Source duration : 1 h 7 min
Bit rate : 1 000 kb/s
Width : 1 920 pixels
Height : 1 080 pixels
Display aspect ratio : 16:9
Frame rate mode : Constant
Frame rate : 20.000 FPS
Color space : YUV
Chroma subsampling : 4:2:0
Bit depth : 8 bits
Scan type : Progressive
Bits/(Pixel*Frame) : 0.024
Stream size : 482 MiB (92%)
Source stream size : 482 MiB (92%)
Writing library : x264 core 146 r2538 121396c
Encoding settings : cabac=1 / ref=1 / deblock=1:0:0 / analyse=0x3:0x113 / me=hex / subme=2 / psy=1 / psy_rd=1.00:0.00 / mixed_ref=0 / me_range=16 / chroma_me=1 / trellis=0 / 8x8dct=1 / cqm=0 / deadzone=21,11 / fast_pskip=1 / chroma_qp_offset=0 / threads=6 / lookahead_threads=2 / sliced_threads=0 / nr=0 / decimate=1 / interlaced=0 / bluray_compat=0 / constrained_intra=0 / bframes=3 / b_pyramid=2 / b_adapt=1 / b_bias=0 / direct=1 / weightb=1 / open_gop=0 / weightp=1 / keyint=250 / keyint_min=20 / scenecut=40 / intra_refresh=0 / rc_lookahead=10 / rc=cbr / mbtree=1 / bitrate=1000 / ratetol=1.0 / qcomp=0.60 / qpmin=0 / qpmax=69 / qpstep=4 / vbv_maxrate=1000 / vbv_bufsize=1000 / nal_hrd=none / filler=1 / ip_ratio=1.40 / aq=1:1.00
Encoded date : UTC 2017-08-25 16:55:31
Tagged date : UTC 2017-08-25 16:55:31
Color range : Limited
Color primaries : BT.709
Transfer characteristics : sRGB/sYCC
Matrix coefficients : BT.709
mdhd_Duration : 4039750

Audio
ID : 1
Format : AAC
Format/Info : Advanced Audio Codec
Format profile : LC
Codec ID : mp4a-40-2
Duration : 1 h 7 min
Source duration : 1 h 7 min
Bit rate mode : Constant
Nominal bit rate : 128 kb/s
Channel(s) : channel0
Channel(s)_Original : 2 channels
Channel positions : Front: L R
Sampling rate : 48.0 kHz
Frame rate : 46.875 FPS (1024 SPF)
Compression mode : Lossy
Source stream size : 41.5 MiB (8%)
Language : English
Encoded date : UTC 2017-08-25 16:55:31
Tagged date : UTC 2017-08-25 16:55:31
mdhd_Duration : 4039680

General
Complete name : TournMasterClass-23_HU_Живая игра.mp4
Format : MPEG-4
Format profile : Base Media
Codec ID : isom (isom/iso2/avc1/mp41)
File size : 328 MiB
Duration : 41 min 7 s
Overall bit rate : 1 115 kb/s
Encoded date : UTC 2017-08-25 17:42:00
Tagged date : UTC 2017-08-25 17:42:00
Writing application : Open Broadcaster Software v0.659b

Video
ID : 2
Format : AVC
Format/Info : Advanced Video Codec
Format profile : High@L4
Format settings : CABAC / 4 Ref Frames
Format settings, CABAC : Yes
Format settings, RefFrames : 4 frames
Muxing mode : Container profile=High@3.1
Codec ID : avc1
Codec ID/Info : Advanced Video Coding
Duration : 41 min 7 s
Source duration : 41 min 7 s
Bit rate : 1 000 kb/s
Width : 1 920 pixels
Height : 1 080 pixels
Display aspect ratio : 16:9
Frame rate mode : Constant
Frame rate : 20.000 FPS
Color space : YUV
Chroma subsampling : 4:2:0
Bit depth : 8 bits
Scan type : Progressive
Bits/(Pixel*Frame) : 0.024
Stream size : 294 MiB (90%)
Source stream size : 294 MiB (90%)
Writing library : x264 core 146 r2538 121396c
Encoding settings : cabac=1 / ref=1 / deblock=1:0:0 / analyse=0x3:0x113 / me=hex / subme=2 / psy=1 / psy_rd=1.00:0.00 / mixed_ref=0 / me_range=16 / chroma_me=1 / trellis=0 / 8x8dct=1 / cqm=0 / deadzone=21,11 / fast_pskip=1 / chroma_qp_offset=0 / threads=6 / lookahead_threads=2 / sliced_threads=0 / nr=0 / decimate=1 / interlaced=0 / bluray_compat=0 / constrained_intra=0 / bframes=3 / b_pyramid=2 / b_adapt=1 / b_bias=0 / direct=1 / weightb=1 / open_gop=0 / weightp=1 / keyint=250 / keyint_min=20 / scenecut=40 / intra_refresh=0 / rc_lookahead=10 / rc=cbr / mbtree=1 / bitrate=1000 / ratetol=1.0 / qcomp=0.60 / qpmin=0 / qpmax=69 / qpstep=4 / vbv_maxrate=1000 / vbv_bufsize=1000 / nal_hrd=none / filler=1 / ip_ratio=1.40 / aq=1:1.00
Encoded date : UTC 2017-08-25 17:42:00
Tagged date : UTC 2017-08-25 17:42:00
Color range : Limited
Color primaries : BT.709
Transfer characteristics : sRGB/sYCC
Matrix coefficients : BT.709
mdhd_Duration : 2467900

Audio
ID : 1
Format : AAC
Format/Info : Advanced Audio Codec
Format profile : LC
Codec ID : mp4a-40-2
Duration : 41 min 7 s
Source duration : 41 min 7 s
Bit rate mode : Constant
Nominal bit rate : 128 kb/s
Channel(s) : channel0
Channel(s)_Original : 2 channels
Channel positions : Front: L R
Sampling rate : 48.0 kHz
Frame rate : 46.875 FPS (1024 SPF)
Compression mode : Lossy
Source stream size : 32.1 MiB (10%)
Language : English
Encoded date : UTC 2017-08-25 17:42:00
Tagged date : UTC 2017-08-25 17:42:00
mdhd_Duration : 2467819

General
Complete name : TournMasterClass-24_HU_Разбор рук.mp4
Format : MPEG-4
Format profile : Base Media
Codec ID : isom (isom/iso2/avc1/mp41)
File size : 680 MiB
Duration : 1 h 25 min
Overall bit rate : 1 113 kb/s
Encoded date : UTC 2017-08-25 19:08:24
Tagged date : UTC 2017-08-25 19:08:24
Writing application : Open Broadcaster Software v0.659b

Video
ID : 2
Format : AVC
Format/Info : Advanced Video Codec
Format profile : High@L4
Format settings : CABAC / 4 Ref Frames
Format settings, CABAC : Yes
Format settings, RefFrames : 4 frames
Muxing mode : Container profile=High@3.1
Codec ID : avc1
Codec ID/Info : Advanced Video Coding
Duration : 1 h 25 min
Source duration : 1 h 25 min
Bit rate : 1 000 kb/s
Width : 1 920 pixels
Height : 1 080 pixels
Display aspect ratio : 16:9
Frame rate mode : Constant
Frame rate : 20.000 FPS
Color space : YUV
Chroma subsampling : 4:2:0
Bit depth : 8 bits
Scan type : Progressive
Bits/(Pixel*Frame) : 0.024
Stream size : 611 MiB (90%)
Source stream size : 611 MiB (90%)
Writing library : x264 core 146 r2538 121396c
Encoding settings : cabac=1 / ref=1 / deblock=1:0:0 / analyse=0x3:0x113 / me=hex / subme=2 / psy=1 / psy_rd=1.00:0.00 / mixed_ref=0 / me_range=16 / chroma_me=1 / trellis=0 / 8x8dct=1 / cqm=0 / deadzone=21,11 / fast_pskip=1 / chroma_qp_offset=0 / threads=6 / lookahead_threads=2 / sliced_threads=0 / nr=0 / decimate=1 / interlaced=0 / bluray_compat=0 / constrained_intra=0 / bframes=3 / b_pyramid=2 / b_adapt=1 / b_bias=0 / direct=1 / weightb=1 / open_gop=0 / weightp=1 / keyint=250 / keyint_min=20 / scenecut=40 / intra_refresh=0 / rc_lookahead=10 / rc=cbr / mbtree=1 / bitrate=1000 / ratetol=1.0 / qcomp=0.60 / qpmin=0 / qpmax=69 / qpstep=4 / vbv_maxrate=1000 / vbv_bufsize=1000 / nal_hrd=none / filler=1 / ip_ratio=1.40 / aq=1:1.00
Encoded date : UTC 2017-08-25 19:08:24
Tagged date : UTC 2017-08-25 19:08:24
Color range : Limited
Color primaries : BT.709
Transfer characteristics : sRGB/sYCC
Matrix coefficients : BT.709
mdhd_Duration : 5122250

Audio
ID : 1
Format : AAC
Format/Info : Advanced Audio Codec
Format profile : LC
Codec ID : mp4a-40-2
Duration : 1 h 25 min
Source duration : 1 h 25 min
Bit rate mode : Constant
Nominal bit rate : 128 kb/s
Channel(s) : channel0
Channel(s)_Original : 2 channels
Channel positions : Front: L R
Sampling rate : 48.0 kHz
Frame rate : 46.875 FPS (1024 SPF)
Compression mode : Lossy
Source stream size : 65.3 MiB (10%)
Language : English
Encoded date : UTC 2017-08-25 19:08:24
Tagged date : UTC 2017-08-25 19:08:24
mdhd_Duration : 5122176

General
Complete name : TournMasterClass-01 Введение и Образ мышления.mp4
Format : MPEG-4
Format profile : Base Media
Codec ID : isom (isom/iso2/avc1/mp41)
File size : 297 MiB
Duration : 37 min 45 s
Overall bit rate : 1 099 kb/s
Encoded date : UTC 2017-08-07 00:34:14
Tagged date : UTC 2017-08-07 00:34:14
Writing application : Open Broadcaster Software v0.659b

Video
ID : 2
Format : AVC
Format/Info : Advanced Video Codec
Format profile : High@L4
Format settings : CABAC / 4 Ref Frames
Format settings, CABAC : Yes
Format settings, RefFrames : 4 frames
Muxing mode : Container profile=High@3.1
Codec ID : avc1
Codec ID/Info : Advanced Video Coding
Duration : 37 min 45 s
Source duration : 37 min 45 s
Bit rate : 1 000 kb/s
Width : 1 920 pixels
Height : 1 080 pixels
Display aspect ratio : 16:9
Frame rate mode : Constant
Frame rate : 20.000 FPS
Color space : YUV
Chroma subsampling : 4:2:0
Bit depth : 8 bits
Scan type : Progressive
Bits/(Pixel*Frame) : 0.024
Stream size : 270 MiB (91%)
Source stream size : 270 MiB (91%)
Writing library : x264 core 146 r2538 121396c
Encoding settings : cabac=1 / ref=1 / deblock=1:0:0 / analyse=0x3:0x113 / me=hex / subme=2 / psy=1 / psy_rd=1.00:0.00 / mixed_ref=0 / me_range=16 / chroma_me=1 / trellis=0 / 8x8dct=1 / cqm=0 / deadzone=21,11 / fast_pskip=1 / chroma_qp_offset=0 / threads=6 / lookahead_threads=2 / sliced_threads=0 / nr=0 / decimate=1 / interlaced=0 / bluray_compat=0 / constrained_intra=0 / bframes=3 / b_pyramid=2 / b_adapt=1 / b_bias=0 / direct=1 / weightb=1 / open_gop=0 / weightp=1 / keyint=250 / keyint_min=20 / scenecut=40 / intra_refresh=0 / rc_lookahead=10 / rc=cbr / mbtree=1 / bitrate=1000 / ratetol=1.0 / qcomp=0.60 / qpmin=0 / qpmax=69 / qpstep=4 / vbv_maxrate=1000 / vbv_bufsize=1000 / nal_hrd=none / filler=1 / ip_ratio=1.40 / aq=1:1.00
Encoded date : UTC 2017-08-07 00:34:14
Tagged date : UTC 2017-08-07 00:34:14
Color range : Limited
Color primaries : BT.709
Transfer characteristics : sRGB/sYCC
Matrix coefficients : BT.709
mdhd_Duration : 2265700

Audio
ID : 1
Format : AAC
Format/Info : Advanced Audio Codec
Format profile : LC
Codec ID : mp4a-40-2
Duration : 37 min 45 s
Source duration : 37 min 45 s
Bit rate mode : Constant
Nominal bit rate : 128 kb/s
Channel(s) : channel0
Channel(s)_Original : 2 channels
Channel positions : Front: L R
Sampling rate : 48.0 kHz
Frame rate : 46.875 FPS (1024 SPF)
Compression mode : Lossy
Source stream size : 25.0 MiB (8%)
Language : English
Encoded date : UTC 2017-08-07 00:34:14
Tagged date : UTC 2017-08-07 00:34:14
mdhd_Duration : 2265621

General
Complete name : TournMasterClass-02 Префлоп объяснение спектров.mp4
Format : MPEG-4
Format profile : Base Media
Codec ID : isom (isom/iso2/avc1/mp41)
File size : 387 MiB
Duration : 49 min 19 s
Overall bit rate : 1 097 kb/s
Encoded date : UTC 2017-08-07 01:28:23
Tagged date : UTC 2017-08-07 01:28:23
Writing application : Open Broadcaster Software v0.659b

Video
ID : 2
Format : AVC
Format/Info : Advanced Video Codec
Format profile : High@L4
Format settings : CABAC / 4 Ref Frames
Format settings, CABAC : Yes
Format settings, RefFrames : 4 frames
Muxing mode : Container profile=High@3.1
Codec ID : avc1
Codec ID/Info : Advanced Video Coding
Duration : 49 min 19 s
Source duration : 49 min 19 s
Bit rate : 1 000 kb/s
Width : 1 920 pixels
Height : 1 080 pixels
Display aspect ratio : 16:9
Frame rate mode : Constant
Frame rate : 20.000 FPS
Color space : YUV
Chroma subsampling : 4:2:0
Bit depth : 8 bits
Scan type : Progressive
Bits/(Pixel*Frame) : 0.024
Stream size : 353 MiB (91%)
Source stream size : 353 MiB (91%)
Writing library : x264 core 146 r2538 121396c
Encoding settings : cabac=1 / ref=1 / deblock=1:0:0 / analyse=0x3:0x113 / me=hex / subme=2 / psy=1 / psy_rd=1.00:0.00 / mixed_ref=0 / me_range=16 / chroma_me=1 / trellis=0 / 8x8dct=1 / cqm=0 / deadzone=21,11 / fast_pskip=1 / chroma_qp_offset=0 / threads=6 / lookahead_threads=2 / sliced_threads=0 / nr=0 / decimate=1 / interlaced=0 / bluray_compat=0 / constrained_intra=0 / bframes=3 / b_pyramid=2 / b_adapt=1 / b_bias=0 / direct=1 / weightb=1 / open_gop=0 / weightp=1 / keyint=250 / keyint_min=20 / scenecut=40 / intra_refresh=0 / rc_lookahead=10 / rc=cbr / mbtree=1 / bitrate=1000 / ratetol=1.0 / qcomp=0.60 / qpmin=0 / qpmax=69 / qpstep=4 / vbv_maxrate=1000 / vbv_bufsize=1000 / nal_hrd=none / filler=1 / ip_ratio=1.40 / aq=1:1.00
Encoded date : UTC 2017-08-07 01:28:23
Tagged date : UTC 2017-08-07 01:28:23
Color range : Limited
Color primaries : BT.709
Transfer characteristics : sRGB/sYCC
Matrix coefficients : BT.709
mdhd_Duration : 2959250

Audio
ID : 1
Format : AAC
Format/Info : Advanced Audio Codec
Format profile : LC
Codec ID : mp4a-40-2
Duration : 49 min 19 s
Source duration : 49 min 19 s
Bit rate mode : Constant
Nominal bit rate : 128 kb/s
Channel(s) : channel0
Channel(s)_Original : 2 channels
Channel positions : Front: L R
Sampling rate : 48.0 kHz
Frame rate : 46.875 FPS (1024 SPF)
Compression mode : Lossy
Source stream size : 32.1 MiB (8%)
Language : English
Encoded date : UTC 2017-08-07 01:28:23
Tagged date : UTC 2017-08-07 01:28:23
mdhd_Duration : 2959168

General
Complete name : TournMasterClass-03 Префлоп Идеальная стратегия опенрейзов Теория.mp4
Format : MPEG-4
Format profile : Base Media
Codec ID : isom (isom/iso2/avc1/mp41)
File size : 455 MiB
Duration : 58 min 1 s
Overall bit rate : 1 097 kb/s
Encoded date : UTC 2017-08-07 14:32:05
Tagged date : UTC 2017-08-07 14:32:05
Writing application : Open Broadcaster Software v0.659b

Video
ID : 2
Format : AVC
Format/Info : Advanced Video Codec
Format profile : High@L4
Format settings : CABAC / 4 Ref Frames
Format settings, CABAC : Yes
Format settings, RefFrames : 4 frames
Muxing mode : Container profile=High@3.1
Codec ID : avc1
Codec ID/Info : Advanced Video Coding
Duration : 58 min 1 s
Source duration : 58 min 1 s
Bit rate : 1 000 kb/s
Width : 1 920 pixels
Height : 1 080 pixels
Display aspect ratio : 16:9
Frame rate mode : Constant
Frame rate : 20.000 FPS
Color space : YUV
Chroma subsampling : 4:2:0
Bit depth : 8 bits
Scan type : Progressive
Bits/(Pixel*Frame) : 0.024
Stream size : 415 MiB (91%)
Source stream size : 415 MiB (91%)
Writing library : x264 core 146 r2538 121396c
Encoding settings : cabac=1 / ref=1 / deblock=1:0:0 / analyse=0x3:0x113 / me=hex / subme=2 / psy=1 / psy_rd=1.00:0.00 / mixed_ref=0 / me_range=16 / chroma_me=1 / trellis=0 / 8x8dct=1 / cqm=0 / deadzone=21,11 / fast_pskip=1 / chroma_qp_offset=0 / threads=6 / lookahead_threads=2 / sliced_threads=0 / nr=0 / decimate=1 / interlaced=0 / bluray_compat=0 / constrained_intra=0 / bframes=3 / b_pyramid=2 / b_adapt=1 / b_bias=0 / direct=1 / weightb=1 / open_gop=0 / weightp=1 / keyint=250 / keyint_min=20 / scenecut=40 / intra_refresh=0 / rc_lookahead=10 / rc=cbr / mbtree=1 / bitrate=1000 / ratetol=1.0 / qcomp=0.60 / qpmin=0 / qpmax=69 / qpstep=4 / vbv_maxrate=1000 / vbv_bufsize=1000 / nal_hrd=none / filler=1 / ip_ratio=1.40 / aq=1:1.00
Encoded date : UTC 2017-08-07 14:32:05
Tagged date : UTC 2017-08-07 14:32:05
Color range : Limited
Color primaries : BT.709
Transfer characteristics : sRGB/sYCC
Matrix coefficients : BT.709
mdhd_Duration : 3481700

Audio
ID : 1
Format : AAC
Format/Info : Advanced Audio Codec
Format profile : LC
Codec ID : mp4a-40-2
Duration : 58 min 1 s
Source duration : 58 min 1 s
Bit rate mode : Constant
Nominal bit rate : 128 kb/s
Channel(s) : channel0
Channel(s)_Original : 2 channels
Channel positions : Front: L R
Sampling rate : 48.0 kHz
Frame rate : 46.875 FPS (1024 SPF)
Compression mode : Lossy
Source stream size : 37.6 MiB (8%)
Language : English
Encoded date : UTC 2017-08-07 14:32:05
Tagged date : UTC 2017-08-07 14:32:05
mdhd_Duration : 3481621

General
Complete name : TournMasterClass-04 Префлоп Идеальная стратегия опенрейзов Практика.mp4
Format : MPEG-4
Format profile : Base Media
Codec ID : isom (isom/iso2/avc1/mp41)
File size : 374 MiB
Duration : 47 min 0 s
Overall bit rate : 1 111 kb/s
Encoded date : UTC 2017-08-08 00:36:30
Tagged date : UTC 2017-08-08 00:36:30
Writing application : Open Broadcaster Software v0.659b

Video
ID : 2
Format : AVC
Format/Info : Advanced Video Codec
Format profile : High@L4
Format settings : CABAC / 4 Ref Frames
Format settings, CABAC : Yes
Format settings, RefFrames : 4 frames
Muxing mode : Container profile=High@3.1
Codec ID : avc1
Codec ID/Info : Advanced Video Coding
Duration : 47 min 0 s
Source duration : 47 min 0 s
Bit rate : 1 000 kb/s
Width : 1 920 pixels
Height : 1 080 pixels
Display aspect ratio : 16:9
Frame rate mode : Constant
Frame rate : 20.000 FPS
Color space : YUV
Chroma subsampling : 4:2:0
Bit depth : 8 bits
Scan type : Progressive
Bits/(Pixel*Frame) : 0.024
Stream size : 336 MiB (90%)
Source stream size : 336 MiB (90%)
Writing library : x264 core 146 r2538 121396c
Encoding settings : cabac=1 / ref=1 / deblock=1:0:0 / analyse=0x3:0x113 / me=hex / subme=2 / psy=1 / psy_rd=1.00:0.00 / mixed_ref=0 / me_range=16 / chroma_me=1 / trellis=0 / 8x8dct=1 / cqm=0 / deadzone=21,11 / fast_pskip=1 / chroma_qp_offset=0 / threads=6 / lookahead_threads=2 / sliced_threads=0 / nr=0 / decimate=1 / interlaced=0 / bluray_compat=0 / constrained_intra=0 / bframes=3 / b_pyramid=2 / b_adapt=1 / b_bias=0 / direct=1 / weightb=1 / open_gop=0 / weightp=1 / keyint=250 / keyint_min=20 / scenecut=40 / intra_refresh=0 / rc_lookahead=10 / rc=cbr / mbtree=1 / bitrate=1000 / ratetol=1.0 / qcomp=0.60 / qpmin=0 / qpmax=69 / qpstep=4 / vbv_maxrate=1000 / vbv_bufsize=1000 / nal_hrd=none / filler=1 / ip_ratio=1.40 / aq=1:1.00
Encoded date : UTC 2017-08-08 00:36:30
Tagged date : UTC 2017-08-08 00:36:30
Color range : Limited
Color primaries : BT.709
Transfer characteristics : sRGB/sYCC
Matrix coefficients : BT.709
mdhd_Duration : 2820550

Audio
ID : 1
Format : AAC
Format/Info : Advanced Audio Codec
Format profile : LC
Codec ID : mp4a-40-2
Duration : 47 min 0 s
Source duration : 47 min 0 s
Bit rate mode : Constant
Nominal bit rate : 128 kb/s
Channel(s) : channel0
Channel(s)_Original : 2 channels
Channel positions : Front: L R
Sampling rate : 48.0 kHz
Frame rate : 46.875 FPS (1024 SPF)
Compression mode : Lossy
Source stream size : 35.3 MiB (9%)
Language : English
Encoded date : UTC 2017-08-08 00:36:30
Tagged date : UTC 2017-08-08 00:36:30
mdhd_Duration : 2820480

General
Complete name : TournMasterClass-05 Префлоп Колдколлы и 3беты.mp4
Format : MPEG-4
Format profile : Base Media
Codec ID : isom (isom/iso2/avc1/mp41)
File size : 771 MiB
Duration : 1 h 38 min
Overall bit rate : 1 094 kb/s
Encoded date : UTC 2017-08-07 18:36:32
Tagged date : UTC 2017-08-07 18:36:32
Writing application : Open Broadcaster Software v0.659b

Video
ID : 2
Format : AVC
Format/Info : Advanced Video Codec
Format profile : High@L4
Format settings : CABAC / 4 Ref Frames
Format settings, CABAC : Yes
Format settings, RefFrames : 4 frames
Muxing mode : Container profile=High@3.1
Codec ID : avc1
Codec ID/Info : Advanced Video Coding
Duration : 1 h 38 min
Source duration : 1 h 38 min
Bit rate : 1 000 kb/s
Width : 1 920 pixels
Height : 1 080 pixels
Display aspect ratio : 16:9
Frame rate mode : Constant
Frame rate : 20.000 FPS
Color space : YUV
Chroma subsampling : 4:2:0
Bit depth : 8 bits
Scan type : Progressive
Bits/(Pixel*Frame) : 0.024
Stream size : 705 MiB (91%)
Source stream size : 705 MiB (91%)
Writing library : x264 core 146 r2538 121396c
Encoding settings : cabac=1 / ref=1 / deblock=1:0:0 / analyse=0x3:0x113 / me=hex / subme=2 / psy=1 / psy_rd=1.00:0.00 / mixed_ref=0 / me_range=16 / chroma_me=1 / trellis=0 / 8x8dct=1 / cqm=0 / deadzone=21,11 / fast_pskip=1 / chroma_qp_offset=0 / threads=6 / lookahead_threads=2 / sliced_threads=0 / nr=0 / decimate=1 / interlaced=0 / bluray_compat=0 / constrained_intra=0 / bframes=3 / b_pyramid=2 / b_adapt=1 / b_bias=0 / direct=1 / weightb=1 / open_gop=0 / weightp=1 / keyint=250 / keyint_min=20 / scenecut=40 / intra_refresh=0 / rc_lookahead=10 / rc=cbr / mbtree=1 / bitrate=1000 / ratetol=1.0 / qcomp=0.60 / qpmin=0 / qpmax=69 / qpstep=4 / vbv_maxrate=1000 / vbv_bufsize=1000 / nal_hrd=none / filler=1 / ip_ratio=1.40 / aq=1:1.00
Encoded date : UTC 2017-08-07 18:36:32
Tagged date : UTC 2017-08-07 18:36:32
Color range : Limited
Color primaries : BT.709
Transfer characteristics : sRGB/sYCC
Matrix coefficients : BT.709
mdhd_Duration : 5911100

Audio
ID : 1
Format : AAC
Format/Info : Advanced Audio Codec
Format profile : LC
Codec ID : mp4a-40-2
Duration : 1 h 38 min
Source duration : 1 h 38 min
Bit rate mode : Constant
Nominal bit rate : 128 kb/s
Channel(s) : channel0
Channel(s)_Original : 2 channels
Channel positions : Front: L R
Sampling rate : 48.0 kHz
Frame rate : 46.875 FPS (1024 SPF)
Compression mode : Lossy
Source stream size : 61.6 MiB (8%)
Language : English
Encoded date : UTC 2017-08-07 18:36:32
Tagged date : UTC 2017-08-07 18:36:32
mdhd_Duration : 5911019

General
Complete name : TournMasterClass-06 Префлоп Пассивная защита.mp4
Format : MPEG-4
Format profile : Base Media
Codec ID : isom (isom/iso2/avc1/mp41)
File size : 462 MiB
Duration : 59 min 8 s
Overall bit rate : 1 092 kb/s
Encoded date : UTC 2017-08-07 23:32:37
Tagged date : UTC 2017-08-07 23:32:37
Writing application : Open Broadcaster Software v0.659b

Video
ID : 2
Format : AVC
Format/Info : Advanced Video Codec
Format profile : High@L4
Format settings : CABAC / 4 Ref Frames
Format settings, CABAC : Yes
Format settings, RefFrames : 4 frames
Muxing mode : Container profile=High@3.1
Codec ID : avc1
Codec ID/Info : Advanced Video Coding
Duration : 59 min 8 s
Source duration : 59 min 8 s
Bit rate : 1 000 kb/s
Width : 1 920 pixels
Height : 1 080 pixels
Display aspect ratio : 16:9
Frame rate mode : Constant
Frame rate : 20.000 FPS
Color space : YUV
Chroma subsampling : 4:2:0
Bit depth : 8 bits
Scan type : Progressive
Bits/(Pixel*Frame) : 0.024
Stream size : 423 MiB (92%)
Source stream size : 423 MiB (92%)
Writing library : x264 core 146 r2538 121396c
Encoding settings : cabac=1 / ref=1 / deblock=1:0:0 / analyse=0x3:0x113 / me=hex / subme=2 / psy=1 / psy_rd=1.00:0.00 / mixed_ref=0 / me_range=16 / chroma_me=1 / trellis=0 / 8x8dct=1 / cqm=0 / deadzone=21,11 / fast_pskip=1 / chroma_qp_offset=0 / threads=6 / lookahead_threads=2 / sliced_threads=0 / nr=0 / decimate=1 / interlaced=0 / bluray_compat=0 / constrained_intra=0 / bframes=3 / b_pyramid=2 / b_adapt=1 / b_bias=0 / direct=1 / weightb=1 / open_gop=0 / weightp=1 / keyint=250 / keyint_min=20 / scenecut=40 / intra_refresh=0 / rc_lookahead=10 / rc=cbr / mbtree=1 / bitrate=1000 / ratetol=1.0 / qcomp=0.60 / qpmin=0 / qpmax=69 / qpstep=4 / vbv_maxrate=1000 / vbv_bufsize=1000 / nal_hrd=none / filler=1 / ip_ratio=1.40 / aq=1:1.00
Encoded date : UTC 2017-08-07 23:32:37
Tagged date : UTC 2017-08-07 23:32:37
Color range : Limited
Color primaries : BT.709
Transfer characteristics : sRGB/sYCC
Matrix coefficients : BT.709
mdhd_Duration : 3548950

Audio
ID : 1
Format : AAC
Format/Info : Advanced Audio Codec
Format profile : LC
Codec ID : mp4a-40-2
Duration : 59 min 8 s
Source duration : 59 min 8 s
Bit rate mode : Constant
Nominal bit rate : 128 kb/s
Channel(s) : channel0
Channel(s)_Original : 2 channels
Channel positions : Front: L R
Sampling rate : 48.0 kHz
Frame rate : 46.875 FPS (1024 SPF)
Compression mode : Lossy
Source stream size : 36.2 MiB (8%)
Language : English
Encoded date : UTC 2017-08-07 23:32:37
Tagged date : UTC 2017-08-07 23:32:37
mdhd_Duration : 3548885

General
Complete name : TournMasterClass-07 Префлоп Игра против 3бетов и 4беты.mp4
Format : MPEG-4
Format profile : Base Media
Codec ID : isom (isom/iso2/avc1/mp41)
File size : 588 MiB
Duration : 1 h 13 min
Overall bit rate : 1 111 kb/s
Encoded date : UTC 2017-08-07 22:32:10
Tagged date : UTC 2017-08-07 22:32:10
Writing application : Open Broadcaster Software v0.659b

Video
ID : 2
Format : AVC
Format/Info : Advanced Video Codec
Format profile : High@L4
Format settings : CABAC / 4 Ref Frames
Format settings, CABAC : Yes
Format settings, RefFrames : 4 frames
Muxing mode : Container profile=High@3.1
Codec ID : avc1
Codec ID/Info : Advanced Video Coding
Duration : 1 h 13 min
Source duration : 1 h 13 min
Bit rate : 1 000 kb/s
Width : 1 920 pixels
Height : 1 080 pixels
Display aspect ratio : 16:9
Frame rate mode : Constant
Frame rate : 20.000 FPS
Color space : YUV
Chroma subsampling : 4:2:0
Bit depth : 8 bits
Scan type : Progressive
Bits/(Pixel*Frame) : 0.024
Stream size : 529 MiB (90%)
Source stream size : 529 MiB (90%)
Writing library : x264 core 146 r2538 121396c
Encoding settings : cabac=1 / ref=1 / deblock=1:0:0 / analyse=0x3:0x113 / me=hex / subme=2 / psy=1 / psy_rd=1.00:0.00 / mixed_ref=0 / me_range=16 / chroma_me=1 / trellis=0 / 8x8dct=1 / cqm=0 / deadzone=21,11 / fast_pskip=1 / chroma_qp_offset=0 / threads=6 / lookahead_threads=2 / sliced_threads=0 / nr=0 / decimate=1 / interlaced=0 / bluray_compat=0 / constrained_intra=0 / bframes=3 / b_pyramid=2 / b_adapt=1 / b_bias=0 / direct=1 / weightb=1 / open_gop=0 / weightp=1 / keyint=250 / keyint_min=20 / scenecut=40 / intra_refresh=0 / rc_lookahead=10 / rc=cbr / mbtree=1 / bitrate=1000 / ratetol=1.0 / qcomp=0.60 / qpmin=0 / qpmax=69 / qpstep=4 / vbv_maxrate=1000 / vbv_bufsize=1000 / nal_hrd=none / filler=1 / ip_ratio=1.40 / aq=1:1.00
Encoded date : UTC 2017-08-07 22:32:10
Tagged date : UTC 2017-08-07 22:32:10
Color range : Limited
Color primaries : BT.709
Transfer characteristics : sRGB/sYCC
Matrix coefficients : BT.709
mdhd_Duration : 4436650

Audio
ID : 1
Format : AAC
Format/Info : Advanced Audio Codec
Format profile : LC
Codec ID : mp4a-40-2
Duration : 1 h 13 min
Source duration : 1 h 13 min
Bit rate mode : Constant
Nominal bit rate : 128 kb/s
Channel(s) : channel0
Channel(s)_Original : 2 channels
Channel positions : Front: L R
Sampling rate : 48.0 kHz
Frame rate : 46.875 FPS (1024 SPF)
Compression mode : Lossy
Source stream size : 55.6 MiB (9%)
Language : English
Encoded date : UTC 2017-08-07 22:32:10
Tagged date : UTC 2017-08-07 22:32:10
mdhd_Duration : 4436587

General
Complete name : TournMasterClass-08 Постфлоп Игра в позиции Часть1.mp4
Format : MPEG-4
Format profile : Base Media
Codec ID : isom (isom/iso2/avc1/mp41)
File size : 710 MiB
Duration : 1 h 30 min
Overall bit rate : 1 094 kb/s
Encoded date : UTC 2017-08-08 17:31:44
Tagged date : UTC 2017-08-08 17:31:44
Writing application : Open Broadcaster Software v0.659b

Video
ID : 2
Format : AVC
Format/Info : Advanced Video Codec
Format profile : High@L4
Format settings : CABAC / 4 Ref Frames
Format settings, CABAC : Yes
Format settings, RefFrames : 4 frames
Muxing mode : Container profile=High@3.1
Codec ID : avc1
Codec ID/Info : Advanced Video Coding
Duration : 1 h 30 min
Source duration : 1 h 30 min
Bit rate : 1 000 kb/s
Width : 1 920 pixels
Height : 1 080 pixels
Display aspect ratio : 16:9
Frame rate mode : Constant
Frame rate : 20.000 FPS
Color space : YUV
Chroma subsampling : 4:2:0
Bit depth : 8 bits
Scan type : Progressive
Bits/(Pixel*Frame) : 0.024
Stream size : 649 MiB (91%)
Source stream size : 649 MiB (91%)
Writing library : x264 core 146 r2538 121396c
Encoding settings : cabac=1 / ref=1 / deblock=1:0:0 / analyse=0x3:0x113 / me=hex / subme=2 / psy=1 / psy_rd=1.00:0.00 / mixed_ref=0 / me_range=16 / chroma_me=1 / trellis=0 / 8x8dct=1 / cqm=0 / deadzone=21,11 / fast_pskip=1 / chroma_qp_offset=0 / threads=6 / lookahead_threads=2 / sliced_threads=0 / nr=0 / decimate=1 / interlaced=0 / bluray_compat=0 / constrained_intra=0 / bframes=3 / b_pyramid=2 / b_adapt=1 / b_bias=0 / direct=1 / weightb=1 / open_gop=0 / weightp=1 / keyint=250 / keyint_min=20 / scenecut=40 / intra_refresh=0 / rc_lookahead=10 / rc=cbr / mbtree=1 / bitrate=1000 / ratetol=1.0 / qcomp=0.60 / qpmin=0 / qpmax=69 / qpstep=4 / vbv_maxrate=1000 / vbv_bufsize=1000 / nal_hrd=none / filler=1 / ip_ratio=1.40 / aq=1:1.00
Encoded date : UTC 2017-08-08 17:31:44
Tagged date : UTC 2017-08-08 17:31:44
Color range : Limited
Color primaries : BT.709
Transfer characteristics : sRGB/sYCC
Matrix coefficients : BT.709
mdhd_Duration : 5440800

Audio
ID : 1
Format : AAC
Format/Info : Advanced Audio Codec
Format profile : LC
Codec ID : mp4a-40-2
Duration : 1 h 30 min
Source duration : 1 h 30 min
Bit rate mode : Constant
Nominal bit rate : 128 kb/s
Channel(s) : channel0
Channel(s)_Original : 2 channels
Channel positions : Front: L R
Sampling rate : 48.0 kHz
Frame rate : 46.875 FPS (1024 SPF)
Compression mode : Lossy
Source stream size : 57.0 MiB (8%)
Language : English
Encoded date : UTC 2017-08-08 17:31:44
Tagged date : UTC 2017-08-08 17:31:44
mdhd_Duration : 5440726

General
Complete name : TournMasterClass-09 Постфлоп Игра в позиции Часть2.mp4
Format : MPEG-4
Format profile : Base Media
Codec ID : isom (isom/iso2/avc1/mp41)
File size : 872 MiB
Duration : 1 h 51 min
Overall bit rate : 1 095 kb/s
Encoded date : UTC 2017-08-08 19:31:37
Tagged date : UTC 2017-08-08 19:31:37
Writing application : Open Broadcaster Software v0.659b

Video
ID : 2
Format : AVC
Format/Info : Advanced Video Codec
Format profile : High@L4
Format settings : CABAC / 4 Ref Frames
Format settings, CABAC : Yes
Format settings, RefFrames : 4 frames
Muxing mode : Container profile=High@3.1
Codec ID : avc1
Codec ID/Info : Advanced Video Coding
Duration : 1 h 51 min
Source duration : 1 h 51 min
Bit rate : 1 000 kb/s
Width : 1 920 pixels
Height : 1 080 pixels
Display aspect ratio : 16:9
Frame rate mode : Constant
Frame rate : 20.000 FPS
Color space : YUV
Chroma subsampling : 4:2:0
Bit depth : 8 bits
Scan type : Progressive
Bits/(Pixel*Frame) : 0.024
Stream size : 797 MiB (91%)
Source stream size : 797 MiB (91%)
Writing library : x264 core 146 r2538 121396c
Encoding settings : cabac=1 / ref=1 / deblock=1:0:0 / analyse=0x3:0x113 / me=hex / subme=2 / psy=1 / psy_rd=1.00:0.00 / mixed_ref=0 / me_range=16 / chroma_me=1 / trellis=0 / 8x8dct=1 / cqm=0 / deadzone=21,11 / fast_pskip=1 / chroma_qp_offset=0 / threads=6 / lookahead_threads=2 / sliced_threads=0 / nr=0 / decimate=1 / interlaced=0 / bluray_compat=0 / constrained_intra=0 / bframes=3 / b_pyramid=2 / b_adapt=1 / b_bias=0 / direct=1 / weightb=1 / open_gop=0 / weightp=1 / keyint=250 / keyint_min=20 / scenecut=40 / intra_refresh=0 / rc_lookahead=10 / rc=cbr / mbtree=1 / bitrate=1000 / ratetol=1.0 / qcomp=0.60 / qpmin=0 / qpmax=69 / qpstep=4 / vbv_maxrate=1000 / vbv_bufsize=1000 / nal_hrd=none / filler=1 / ip_ratio=1.40 / aq=1:1.00
Encoded date : UTC 2017-08-08 19:31:37
Tagged date : UTC 2017-08-08 19:31:37
Color range : Limited
Color primaries : BT.709
Transfer characteristics : sRGB/sYCC
Matrix coefficients : BT.709
mdhd_Duration : 6683800

Audio
ID : 1
Format : AAC
Format/Info : Advanced Audio Codec
Format profile : LC
Codec ID : mp4a-40-2
Duration : 1 h 51 min
Source duration : 1 h 51 min
Bit rate mode : Constant
Nominal bit rate : 128 kb/s
Channel(s) : channel0
Channel(s)_Original : 2 channels
Channel positions : Front: L R
Sampling rate : 48.0 kHz
Frame rate : 46.875 FPS (1024 SPF)
Compression mode : Lossy
Source stream size : 70.7 MiB (8%)
Language : English
Encoded date : UTC 2017-08-08 19:31:37
Tagged date : UTC 2017-08-08 19:31:37
mdhd_Duration : 6683734

General
Complete name : TournMasterClass-10 Постфлоп Игра вне позиции как префлоп-агрессор.mp4
Format : MPEG-4
Format profile : Base Media
Codec ID : isom (isom/iso2/avc1/mp41)
File size : 1.01 GiB
Duration : 2 h 11 min
Overall bit rate : 1 105 kb/s
Encoded date : UTC 2017-08-08 21:49:45
Tagged date : UTC 2017-08-08 21:49:45
Writing application : Open Broadcaster Software v0.659b

Video
ID : 2
Format : AVC
Format/Info : Advanced Video Codec
Format profile : High@L4
Format settings : CABAC / 4 Ref Frames
Format settings, CABAC : Yes
Format settings, RefFrames : 4 frames
Muxing mode : Container profile=High@3.1
Codec ID : avc1
Codec ID/Info : Advanced Video Coding
Duration : 2 h 11 min
Source duration : 2 h 11 min
Bit rate : 1 000 kb/s
Width : 1 920 pixels
Height : 1 080 pixels
Display aspect ratio : 16:9
Frame rate mode : Constant
Frame rate : 20.000 FPS
Color space : YUV
Chroma subsampling : 4:2:0
Bit depth : 8 bits
Scan type : Progressive
Bits/(Pixel*Frame) : 0.024
Stream size : 940 MiB (91%)
Source stream size : 940 MiB (91%)
Writing library : x264 core 146 r2538 121396c
Encoding settings : cabac=1 / ref=1 / deblock=1:0:0 / analyse=0x3:0x113 / me=hex / subme=2 / psy=1 / psy_rd=1.00:0.00 / mixed_ref=0 / me_range=16 / chroma_me=1 / trellis=0 / 8x8dct=1 / cqm=0 / deadzone=21,11 / fast_pskip=1 / chroma_qp_offset=0 / threads=6 / lookahead_threads=2 / sliced_threads=0 / nr=0 / decimate=1 / interlaced=0 / bluray_compat=0 / constrained_intra=0 / bframes=3 / b_pyramid=2 / b_adapt=1 / b_bias=0 / direct=1 / weightb=1 / open_gop=0 / weightp=1 / keyint=250 / keyint_min=20 / scenecut=40 / intra_refresh=0 / rc_lookahead=10 / rc=cbr / mbtree=1 / bitrate=1000 / ratetol=1.0 / qcomp=0.60 / qpmin=0 / qpmax=69 / qpstep=4 / vbv_maxrate=1000 / vbv_bufsize=1000 / nal_hrd=none / filler=1 / ip_ratio=1.40 / aq=1:1.00
Encoded date : UTC 2017-08-08 21:49:45
Tagged date : UTC 2017-08-08 21:49:45
Color range : Limited
Color primaries : BT.709
Transfer characteristics : sRGB/sYCC
Matrix coefficients : BT.709
mdhd_Duration : 7886750

Audio
ID : 1
Format : AAC
Format/Info : Advanced Audio Codec
Format profile : LC
Codec ID : mp4a-40-2
Duration : 2 h 11 min
Source duration : 2 h 11 min
Bit rate mode : Constant
Nominal bit rate : 128 kb/s
Channel(s) : channel0
Channel(s)_Original : 2 channels
Channel positions : Front: L R
Sampling rate : 48.0 kHz
Frame rate : 46.875 FPS (1024 SPF)
Compression mode : Lossy
Source stream size : 93.0 MiB (9%)
Language : English
Encoded date : UTC 2017-08-08 21:49:45
Tagged date : UTC 2017-08-08 21:49:45
mdhd_Duration : 7886678

General
Complete name : TournMasterClass-11 Постфлоп Игра вне позиции как колдколлер.mp4
Format : MPEG-4
Format profile : Base Media
Codec ID : isom (isom/iso2/avc1/mp41)
File size : 955 MiB
Duration : 2 h 0 min
Overall bit rate : 1 111 kb/s
Encoded date : UTC 2017-08-09 17:06:11
Tagged date : UTC 2017-08-09 17:06:11
Writing application : Open Broadcaster Software v0.659b

Video
ID : 2
Format : AVC
Format/Info : Advanced Video Codec
Format profile : High@L4
Format settings : CABAC / 4 Ref Frames
Format settings, CABAC : Yes
Format settings, RefFrames : 4 frames
Muxing mode : Container profile=High@3.1
Codec ID : avc1
Codec ID/Info : Advanced Video Coding
Duration : 2 h 0 min
Source duration : 2 h 0 min
Bit rate : 1 000 kb/s
Width : 1 920 pixels
Height : 1 080 pixels
Display aspect ratio : 16:9
Frame rate mode : Constant
Frame rate : 20.000 FPS
Color space : YUV
Chroma subsampling : 4:2:0
Bit depth : 8 bits
Scan type : Progressive
Bits/(Pixel*Frame) : 0.024
Stream size : 859 MiB (90%)
Source stream size : 859 MiB (90%)
Writing library : x264 core 146 r2538 121396c
Encoding settings : cabac=1 / ref=1 / deblock=1:0:0 / analyse=0x3:0x113 / me=hex / subme=2 / psy=1 / psy_rd=1.00:0.00 / mixed_ref=0 / me_range=16 / chroma_me=1 / trellis=0 / 8x8dct=1 / cqm=0 / deadzone=21,11 / fast_pskip=1 / chroma_qp_offset=0 / threads=6 / lookahead_threads=2 / sliced_threads=0 / nr=0 / decimate=1 / interlaced=0 / bluray_compat=0 / constrained_intra=0 / bframes=3 / b_pyramid=2 / b_adapt=1 / b_bias=0 / direct=1 / weightb=1 / open_gop=0 / weightp=1 / keyint=250 / keyint_min=20 / scenecut=40 / intra_refresh=0 / rc_lookahead=10 / rc=cbr / mbtree=1 / bitrate=1000 / ratetol=1.0 / qcomp=0.60 / qpmin=0 / qpmax=69 / qpstep=4 / vbv_maxrate=1000 / vbv_bufsize=1000 / nal_hrd=none / filler=1 / ip_ratio=1.40 / aq=1:1.00
Encoded date : UTC 2017-08-09 17:06:11
Tagged date : UTC 2017-08-09 17:06:11
Color range : Limited
Color primaries : BT.709
Transfer characteristics : sRGB/sYCC
Matrix coefficients : BT.709
mdhd_Duration : 7204600

Audio
ID : 1
Format : AAC
Format/Info : Advanced Audio Codec
Format profile : LC
Codec ID : mp4a-40-2
Duration : 2 h 0 min
Source duration : 2 h 0 min
Bit rate mode : Constant
Bit rate : 105 kb/s
Nominal bit rate : 128 kb/s
Channel(s) : channel0
Channel(s)_Original : 2 channels
Channel positions : Front: L R
Sampling rate : 48.0 kHz
Frame rate : 46.875 FPS (1024 SPF)
Compression mode : Lossy
Stream size : 90.4 MiB (9%)
Source stream size : 90.4 MiB (9%)
Language : English
Encoded date : UTC 2017-08-09 17:06:11
Tagged date : UTC 2017-08-09 17:06:11
mdhd_Duration : 7204544

General
Complete name : TournMasterClass-12 Постфлоп Справляемся с 3бетбанками.mp4
Format : MPEG-4
Format profile : Base Media
Codec ID : isom (isom/iso2/avc1/mp41)
File size : 1.04 GiB
Duration : 2 h 13 min
Overall bit rate : 1 111 kb/s
Encoded date : UTC 2017-08-09 21:22:00
Tagged date : UTC 2017-08-09 21:22:00
Writing application : Open Broadcaster Software v0.659b

Video
ID : 2
Format : AVC
Format/Info : Advanced Video Codec
Format profile : High@L4
Format settings : CABAC / 4 Ref Frames
Format settings, CABAC : Yes
Format settings, RefFrames : 4 frames
Muxing mode : Container profile=High@3.1
Codec ID : avc1
Codec ID/Info : Advanced Video Coding
Duration : 2 h 13 min
Source duration : 2 h 13 min
Bit rate : 1 000 kb/s
Width : 1 920 pixels
Height : 1 080 pixels
Display aspect ratio : 16:9
Frame rate mode : Constant
Frame rate : 20.000 FPS
Color space : YUV
Chroma subsampling : 4:2:0
Bit depth : 8 bits
Scan type : Progressive
Bits/(Pixel*Frame) : 0.024
Stream size : 956 MiB (90%)
Source stream size : 956 MiB (90%)
Writing library : x264 core 146 r2538 121396c
Encoding settings : cabac=1 / ref=1 / deblock=1:0:0 / analyse=0x3:0x113 / me=hex / subme=2 / psy=1 / psy_rd=1.00:0.00 / mixed_ref=0 / me_range=16 / chroma_me=1 / trellis=0 / 8x8dct=1 / cqm=0 / deadzone=21,11 / fast_pskip=1 / chroma_qp_offset=0 / threads=6 / lookahead_threads=2 / sliced_threads=0 / nr=0 / decimate=1 / interlaced=0 / bluray_compat=0 / constrained_intra=0 / bframes=3 / b_pyramid=2 / b_adapt=1 / b_bias=0 / direct=1 / weightb=1 / open_gop=0 / weightp=1 / keyint=250 / keyint_min=20 / scenecut=40 / intra_refresh=0 / rc_lookahead=10 / rc=cbr / mbtree=1 / bitrate=1000 / ratetol=1.0 / qcomp=0.60 / qpmin=0 / qpmax=69 / qpstep=4 / vbv_maxrate=1000 / vbv_bufsize=1000 / nal_hrd=none / filler=1 / ip_ratio=1.40 / aq=1:1.00
Encoded date : UTC 2017-08-09 21:22:00
Tagged date : UTC 2017-08-09 21:22:00
Color range : Limited
Color primaries : BT.709
Transfer characteristics : sRGB/sYCC
Matrix coefficients : BT.709
mdhd_Duration : 8021150

Audio
ID : 1
Format : AAC
Format/Info : Advanced Audio Codec
Format profile : LC
Codec ID : mp4a-40-2
Duration : 2 h 13 min
Source duration : 2 h 13 min
Bit rate mode : Constant
Nominal bit rate : 128 kb/s
Channel(s) : channel0
Channel(s)_Original : 2 channels
Channel positions : Front: L R
Sampling rate : 48.0 kHz
Frame rate : 46.875 FPS (1024 SPF)
Compression mode : Lossy
Source stream size : 101 MiB (9%)
Language : English
Encoded date : UTC 2017-08-09 21:22:00
Tagged date : UTC 2017-08-09 21:22:00
mdhd_Duration : 8021078

General
Complete name : TournMasterClass-13 Постфлоп Игра как колдколлер в позиции.mp4
Format : MPEG-4
Format profile : Base Media
Codec ID : isom (isom/iso2/avc1/mp41)
File size : 745 MiB
Duration : 1 h 35 min
Overall bit rate : 1 094 kb/s
Encoded date : UTC 2017-08-09 23:24:15
Tagged date : UTC 2017-08-09 23:24:15
Writing application : Open Broadcaster Software v0.659b

Video
ID : 2
Format : AVC
Format/Info : Advanced Video Codec
Format profile : High@L4
Format settings : CABAC / 4 Ref Frames
Format settings, CABAC : Yes
Format settings, RefFrames : 4 frames
Muxing mode : Container profile=High@3.1
Codec ID : avc1
Codec ID/Info : Advanced Video Coding
Duration : 1 h 35 min
Source duration : 1 h 35 min
Bit rate : 1 000 kb/s
Width : 1 920 pixels
Height : 1 080 pixels
Display aspect ratio : 16:9
Frame rate mode : Constant
Frame rate : 20.000 FPS
Color space : YUV
Chroma subsampling : 4:2:0
Bit depth : 8 bits
Scan type : Progressive
Bits/(Pixel*Frame) : 0.024
Stream size : 681 MiB (91%)
Source stream size : 681 MiB (91%)
Writing library : x264 core 146 r2538 121396c
Encoding settings : cabac=1 / ref=1 / deblock=1:0:0 / analyse=0x3:0x113 / me=hex / subme=2 / psy=1 / psy_rd=1.00:0.00 / mixed_ref=0 / me_range=16 / chroma_me=1 / trellis=0 / 8x8dct=1 / cqm=0 / deadzone=21,11 / fast_pskip=1 / chroma_qp_offset=0 / threads=6 / lookahead_threads=2 / sliced_threads=0 / nr=0 / decimate=1 / interlaced=0 / bluray_compat=0 / constrained_intra=0 / bframes=3 / b_pyramid=2 / b_adapt=1 / b_bias=0 / direct=1 / weightb=1 / open_gop=0 / weightp=1 / keyint=250 / keyint_min=20 / scenecut=40 / intra_refresh=0 / rc_lookahead=10 / rc=cbr / mbtree=1 / bitrate=1000 / ratetol=1.0 / qcomp=0.60 / qpmin=0 / qpmax=69 / qpstep=4 / vbv_maxrate=1000 / vbv_bufsize=1000 / nal_hrd=none / filler=1 / ip_ratio=1.40 / aq=1:1.00
Encoded date : UTC 2017-08-09 23:24:15
Tagged date : UTC 2017-08-09 23:24:15
Color range : Limited
Color primaries : BT.709
Transfer characteristics : sRGB/sYCC
Matrix coefficients : BT.709
mdhd_Duration : 5709650

Audio
ID : 1
Format : AAC
Format/Info : Advanced Audio Codec
Format profile : LC
Codec ID : mp4a-40-2
Duration : 1 h 35 min
Source duration : 1 h 35 min
Bit rate mode : Constant
Nominal bit rate : 128 kb/s
Channel(s) : channel0
Channel(s)_Original : 2 channels
Channel positions : Front: L R
Sampling rate : 48.0 kHz
Frame rate : 46.875 FPS (1024 SPF)
Compression mode : Lossy
Source stream size : 60.0 MiB (8%)
Language : English
Encoded date : UTC 2017-08-09 23:24:15
Tagged date : UTC 2017-08-09 23:24:15
mdhd_Duration : 5709568

General
Complete name : TournMasterClass-14 Короткие стеки ICM на префлопе.mp4
Format : MPEG-4
Format profile : Base Media
Codec ID : isom (isom/iso2/avc1/mp41)
File size : 749 MiB
Duration : 1 h 34 min
Overall bit rate : 1 113 kb/s
Encoded date : UTC 2017-08-10 01:02:16
Tagged date : UTC 2017-08-10 01:02:16
Writing application : Open Broadcaster Software v0.659b

Video
ID : 2
Format : AVC
Format/Info : Advanced Video Codec
Format profile : High@L4
Format settings : CABAC / 4 Ref Frames
Format settings, CABAC : Yes
Format settings, RefFrames : 4 frames
Muxing mode : Container profile=High@3.1
Codec ID : avc1
Codec ID/Info : Advanced Video Coding
Duration : 1 h 34 min
Source duration : 1 h 34 min
Bit rate : 1 000 kb/s
Width : 1 920 pixels
Height : 1 080 pixels
Display aspect ratio : 16:9
Frame rate mode : Constant
Frame rate : 20.000 FPS
Color space : YUV
Chroma subsampling : 4:2:0
Bit depth : 8 bits
Scan type : Progressive
Bits/(Pixel*Frame) : 0.024
Stream size : 674 MiB (90%)
Source stream size : 674 MiB (90%)
Writing library : x264 core 146 r2538 121396c
Encoding settings : cabac=1 / ref=1 / deblock=1:0:0 / analyse=0x3:0x113 / me=hex / subme=2 / psy=1 / psy_rd=1.00:0.00 / mixed_ref=0 / me_range=16 / chroma_me=1 / trellis=0 / 8x8dct=1 / cqm=0 / deadzone=21,11 / fast_pskip=1 / chroma_qp_offset=0 / threads=6 / lookahead_threads=2 / sliced_threads=0 / nr=0 / decimate=1 / interlaced=0 / bluray_compat=0 / constrained_intra=0 / bframes=3 / b_pyramid=2 / b_adapt=1 / b_bias=0 / direct=1 / weightb=1 / open_gop=0 / weightp=1 / keyint=250 / keyint_min=20 / scenecut=40 / intra_refresh=0 / rc_lookahead=10 / rc=cbr / mbtree=1 / bitrate=1000 / ratetol=1.0 / qcomp=0.60 / qpmin=0 / qpmax=69 / qpstep=4 / vbv_maxrate=1000 / vbv_bufsize=1000 / nal_hrd=none / filler=1 / ip_ratio=1.40 / aq=1:1.00
Encoded date : UTC 2017-08-10 01:02:16
Tagged date : UTC 2017-08-10 01:02:16
Color range : Limited
Color primaries : BT.709
Transfer characteristics : sRGB/sYCC
Matrix coefficients : BT.709
mdhd_Duration : 5650350

Audio
ID : 1
Format : AAC
Format/Info : Advanced Audio Codec
Format profile : LC
Codec ID : mp4a-40-2
Duration : 1 h 34 min
Source duration : 1 h 34 min
Bit rate mode : Constant
Nominal bit rate : 128 kb/s
Channel(s) : channel0
Channel(s)_Original : 2 channels
Channel positions : Front: L R
Sampling rate : 48.0 kHz
Frame rate : 46.875 FPS (1024 SPF)
Compression mode : Lossy
Source stream size : 71.8 MiB (10%)
Language : English
Encoded date : UTC 2017-08-10 01:02:16
Tagged date : UTC 2017-08-10 01:02:16
mdhd_Duration : 5650283

General
Complete name : TournMasterClass-15 Короткие стеки Пуши и коллы оллинов.mp4
Format : MPEG-4
Format profile : Base Media
Codec ID : isom (isom/iso2/avc1/mp41)
File size : 700 MiB
Duration : 1 h 27 min
Overall bit rate : 1 112 kb/s
Encoded date : UTC 2017-08-10 18:07:07
Tagged date : UTC 2017-08-10 18:07:07
Writing application : Open Broadcaster Software v0.659b

Video
ID : 2
Format : AVC
Format/Info : Advanced Video Codec
Format profile : High@L4
Format settings : CABAC / 4 Ref Frames
Format settings, CABAC : Yes
Format settings, RefFrames : 4 frames
Muxing mode : Container profile=High@3.1
Codec ID : avc1
Codec ID/Info : Advanced Video Coding
Duration : 1 h 27 min
Source duration : 1 h 27 min
Bit rate : 1 000 kb/s
Width : 1 920 pixels
Height : 1 080 pixels
Display aspect ratio : 16:9
Frame rate mode : Constant
Frame rate : 20.000 FPS
Color space : YUV
Chroma subsampling : 4:2:0
Bit depth : 8 bits
Scan type : Progressive
Bits/(Pixel*Frame) : 0.024
Stream size : 629 MiB (90%)
Source stream size : 629 MiB (90%)
Writing library : x264 core 146 r2538 121396c
Encoding settings : cabac=1 / ref=1 / deblock=1:0:0 / analyse=0x3:0x113 / me=hex / subme=2 / psy=1 / psy_rd=1.00:0.00 / mixed_ref=0 / me_range=16 / chroma_me=1 / trellis=0 / 8x8dct=1 / cqm=0 / deadzone=21,11 / fast_pskip=1 / chroma_qp_offset=0 / threads=6 / lookahead_threads=2 / sliced_threads=0 / nr=0 / decimate=1 / interlaced=0 / bluray_compat=0 / constrained_intra=0 / bframes=3 / b_pyramid=2 / b_adapt=1 / b_bias=0 / direct=1 / weightb=1 / open_gop=0 / weightp=1 / keyint=250 / keyint_min=20 / scenecut=40 / intra_refresh=0 / rc_lookahead=10 / rc=cbr / mbtree=1 / bitrate=1000 / ratetol=1.0 / qcomp=0.60 / qpmin=0 / qpmax=69 / qpstep=4 / vbv_maxrate=1000 / vbv_bufsize=1000 / nal_hrd=none / filler=1 / ip_ratio=1.40 / aq=1:1.00
Encoded date : UTC 2017-08-10 18:07:07
Tagged date : UTC 2017-08-10 18:07:07
Color range : Limited
Color primaries : BT.709
Transfer characteristics : sRGB/sYCC
Matrix coefficients : BT.709
mdhd_Duration : 5279450

Audio
ID : 1
Format : AAC
Format/Info : Advanced Audio Codec
Format profile : LC
Codec ID : mp4a-40-2
Duration : 1 h 27 min
Source duration : 1 h 27 min
Bit rate mode : Constant
Nominal bit rate : 128 kb/s
Channel(s) : channel0
Channel(s)_Original : 2 channels
Channel positions : Front: L R
Sampling rate : 48.0 kHz
Frame rate : 46.875 FPS (1024 SPF)
Compression mode : Lossy
Source stream size : 66.4 MiB (9%)
Language : English
Encoded date : UTC 2017-08-10 18:07:07
Tagged date : UTC 2017-08-10 18:07:07
mdhd_Duration : 5279382

General
Complete name : TournMasterClass-16 Короткие стеки Рестилы и коллы рестилов.mp4
Format : MPEG-4
Format profile : Base Media
Codec ID : isom (isom/iso2/avc1/mp41)
File size : 729 MiB
Duration : 1 h 31 min
Overall bit rate : 1 112 kb/s
Encoded date : UTC 2017-08-11 16:52:05
Tagged date : UTC 2017-08-11 16:52:05
Writing application : Open Broadcaster Software v0.659b

Video
ID : 2
Format : AVC
Format/Info : Advanced Video Codec
Format profile : High@L4
Format settings : CABAC / 4 Ref Frames
Format settings, CABAC : Yes
Format settings, RefFrames : 4 frames
Muxing mode : Container profile=High@3.1
Codec ID : avc1
Codec ID/Info : Advanced Video Coding
Duration : 1 h 31 min
Source duration : 1 h 31 min
Bit rate : 1 000 kb/s
Width : 1 920 pixels
Height : 1 080 pixels
Display aspect ratio : 16:9
Frame rate mode : Constant
Frame rate : 20.000 FPS
Color space : YUV
Chroma subsampling : 4:2:0
Bit depth : 8 bits
Scan type : Progressive
Bits/(Pixel*Frame) : 0.024
Stream size : 655 MiB (90%)
Source stream size : 655 MiB (90%)
Writing library : x264 core 146 r2538 121396c
Encoding settings : cabac=1 / ref=1 / deblock=1:0:0 / analyse=0x3:0x113 / me=hex / subme=2 / psy=1 / psy_rd=1.00:0.00 / mixed_ref=0 / me_range=16 / chroma_me=1 / trellis=0 / 8x8dct=1 / cqm=0 / deadzone=21,11 / fast_pskip=1 / chroma_qp_offset=0 / threads=6 / lookahead_threads=2 / sliced_threads=0 / nr=0 / decimate=1 / interlaced=0 / bluray_compat=0 / constrained_intra=0 / bframes=3 / b_pyramid=2 / b_adapt=1 / b_bias=0 / direct=1 / weightb=1 / open_gop=0 / weightp=1 / keyint=250 / keyint_min=20 / scenecut=40 / intra_refresh=0 / rc_lookahead=10 / rc=cbr / mbtree=1 / bitrate=1000 / ratetol=1.0 / qcomp=0.60 / qpmin=0 / qpmax=69 / qpstep=4 / vbv_maxrate=1000 / vbv_bufsize=1000 / nal_hrd=none / filler=1 / ip_ratio=1.40 / aq=1:1.00
Encoded date : UTC 2017-08-11 16:52:05
Tagged date : UTC 2017-08-11 16:52:05
Color range : Limited
Color primaries : BT.709
Transfer characteristics : sRGB/sYCC
Matrix coefficients : BT.709
mdhd_Duration : 5495450

Audio
ID : 1
Format : AAC
Format/Info : Advanced Audio Codec
Format profile : LC
Codec ID : mp4a-40-2
Duration : 1 h 31 min
Source duration : 1 h 31 min
Bit rate mode : Constant
Nominal bit rate : 128 kb/s
Channel(s) : channel0
Channel(s)_Original : 2 channels
Channel positions : Front: L R
Sampling rate : 48.0 kHz
Frame rate : 46.875 FPS (1024 SPF)
Compression mode : Lossy
Source stream size : 69.6 MiB (10%)
Language : English
Encoded date : UTC 2017-08-11 16:52:05
Tagged date : UTC 2017-08-11 16:52:05
mdhd_Duration : 5495382

General
Complete name : TournMasterClass-17 Короткие стеки Игра на постфлопе с коротким стеком.mp4
Format : MPEG-4
Format profile : Base Media
Codec ID : isom (isom/iso2/avc1/mp41)
File size : 761 MiB
Duration : 1 h 35 min
Overall bit rate : 1 112 kb/s
Encoded date : UTC 2017-08-11 18:33:19
Tagged date : UTC 2017-08-11 18:33:19
Writing application : Open Broadcaster Software v0.659b

Video
ID : 2
Format : AVC
Format/Info : Advanced Video Codec
Format profile : High@L4
Format settings : CABAC / 4 Ref Frames
Format settings, CABAC : Yes
Format settings, RefFrames : 4 frames
Muxing mode : Container profile=High@3.1
Codec ID : avc1
Codec ID/Info : Advanced Video Coding
Duration : 1 h 35 min
Source duration : 1 h 35 min
Bit rate : 1 000 kb/s
Width : 1 920 pixels
Height : 1 080 pixels
Display aspect ratio : 16:9
Frame rate mode : Constant
Frame rate : 20.000 FPS
Color space : YUV
Chroma subsampling : 4:2:0
Bit depth : 8 bits
Scan type : Progressive
Bits/(Pixel*Frame) : 0.024
Stream size : 685 MiB (90%)
Source stream size : 685 MiB (90%)
Writing library : x264 core 146 r2538 121396c
Encoding settings : cabac=1 / ref=1 / deblock=1:0:0 / analyse=0x3:0x113 / me=hex / subme=2 / psy=1 / psy_rd=1.00:0.00 / mixed_ref=0 / me_range=16 / chroma_me=1 / trellis=0 / 8x8dct=1 / cqm=0 / deadzone=21,11 / fast_pskip=1 / chroma_qp_offset=0 / threads=6 / lookahead_threads=2 / sliced_threads=0 / nr=0 / decimate=1 / interlaced=0 / bluray_compat=0 / constrained_intra=0 / bframes=3 / b_pyramid=2 / b_adapt=1 / b_bias=0 / direct=1 / weightb=1 / open_gop=0 / weightp=1 / keyint=250 / keyint_min=20 / scenecut=40 / intra_refresh=0 / rc_lookahead=10 / rc=cbr / mbtree=1 / bitrate=1000 / ratetol=1.0 / qcomp=0.60 / qpmin=0 / qpmax=69 / qpstep=4 / vbv_maxrate=1000 / vbv_bufsize=1000 / nal_hrd=none / filler=1 / ip_ratio=1.40 / aq=1:1.00
Encoded date : UTC 2017-08-11 18:33:19
Tagged date : UTC 2017-08-11 18:33:19
Color range : Limited
Color primaries : BT.709
Transfer characteristics : sRGB/sYCC
Matrix coefficients : BT.709
mdhd_Duration : 5741850

Audio
ID : 1
Format : AAC
Format/Info : Advanced Audio Codec
Format profile : LC
Codec ID : mp4a-40-2
Duration : 1 h 35 min
Source duration : 1 h 35 min
Bit rate mode : Constant
Nominal bit rate : 128 kb/s
Channel(s) : channel0
Channel(s)_Original : 2 channels
Channel positions : Front: L R
Sampling rate : 48.0 kHz
Frame rate : 46.875 FPS (1024 SPF)
Compression mode : Lossy
Source stream size : 72.8 MiB (10%)
Language : English
Encoded date : UTC 2017-08-11 18:33:19
Tagged date : UTC 2017-08-11 18:33:19
mdhd_Duration : 5741782

General
Complete name : TournMasterClass-18 Короткие стеки ICM на постфлопе.mp4
Format : MPEG-4
Format profile : Base Media
Codec ID : isom (isom/iso2/avc1/mp41)
File size : 494 MiB
Duration : 1 h 3 min
Overall bit rate : 1 092 kb/s
Encoded date : UTC 2017-08-11 20:39:07
Tagged date : UTC 2017-08-11 20:39:07
Writing application : Open Broadcaster Software v0.659b

Video
ID : 2
Format : AVC
Format/Info : Advanced Video Codec
Format profile : High@L4
Format settings : CABAC / 4 Ref Frames
Format settings, CABAC : Yes
Format settings, RefFrames : 4 frames
Muxing mode : Container profile=High@3.1
Codec ID : avc1
Codec ID/Info : Advanced Video Coding
Duration : 1 h 3 min
Source duration : 1 h 3 min
Bit rate : 1 000 kb/s
Width : 1 920 pixels
Height : 1 080 pixels
Display aspect ratio : 16:9
Frame rate mode : Constant
Frame rate : 20.000 FPS
Color space : YUV
Chroma subsampling : 4:2:0
Bit depth : 8 bits
Scan type : Progressive
Bits/(Pixel*Frame) : 0.024
Stream size : 452 MiB (92%)
Source stream size : 452 MiB (92%)
Writing library : x264 core 146 r2538 121396c
Encoding settings : cabac=1 / ref=1 / deblock=1:0:0 / analyse=0x3:0x113 / me=hex / subme=2 / psy=1 / psy_rd=1.00:0.00 / mixed_ref=0 / me_range=16 / chroma_me=1 / trellis=0 / 8x8dct=1 / cqm=0 / deadzone=21,11 / fast_pskip=1 / chroma_qp_offset=0 / threads=6 / lookahead_threads=2 / sliced_threads=0 / nr=0 / decimate=1 / interlaced=0 / bluray_compat=0 / constrained_intra=0 / bframes=3 / b_pyramid=2 / b_adapt=1 / b_bias=0 / direct=1 / weightb=1 / open_gop=0 / weightp=1 / keyint=250 / keyint_min=20 / scenecut=40 / intra_refresh=0 / rc_lookahead=10 / rc=cbr / mbtree=1 / bitrate=1000 / ratetol=1.0 / qcomp=0.60 / qpmin=0 / qpmax=69 / qpstep=4 / vbv_maxrate=1000 / vbv_bufsize=1000 / nal_hrd=none / filler=1 / ip_ratio=1.40 / aq=1:1.00
Encoded date : UTC 2017-08-11 20:39:07
Tagged date : UTC 2017-08-11 20:39:07
Color range : Limited
Color primaries : BT.709
Transfer characteristics : sRGB/sYCC
Matrix coefficients : BT.709
mdhd_Duration : 3792150

Audio
ID : 1
Format : AAC
Format/Info : Advanced Audio Codec
Format profile : LC
Codec ID : mp4a-40-2
Duration : 1 h 3 min
Source duration : 1 h 3 min
Bit rate mode : Constant
Nominal bit rate : 128 kb/s
Channel(s) : channel0
Channel(s)_Original : 2 channels
Channel positions : Front: L R
Sampling rate : 48.0 kHz
Frame rate : 46.875 FPS (1024 SPF)
Compression mode : Lossy
Source stream size : 39.0 MiB (8%)
Language : English
Encoded date : UTC 2017-08-11 20:39:07
Tagged date : UTC 2017-08-11 20:39:07
mdhd_Duration : 3792085

General
Complete name : TournMasterClass-19 WCOOP 100k разбор1.mp4
Format : MPEG-4
Format profile : Base Media
Codec ID : isom (isom/iso2/avc1/mp41)
File size : 343 MiB
Duration : 43 min 11 s
Overall bit rate : 1 111 kb/s
Encoded date : UTC 2017-08-11 21:25:24
Tagged date : UTC 2017-08-11 21:25:24
Writing application : Open Broadcaster Software v0.659b

Video
ID : 2
Format : AVC
Format/Info : Advanced Video Codec
Format profile : High@L4
Format settings : CABAC / 4 Ref Frames
Format settings, CABAC : Yes
Format settings, RefFrames : 4 frames
Muxing mode : Container profile=High@3.1
Codec ID : avc1
Codec ID/Info : Advanced Video Coding
Duration : 43 min 11 s
Source duration : 43 min 11 s
Bit rate : 1 000 kb/s
Width : 1 920 pixels
Height : 1 080 pixels
Display aspect ratio : 16:9
Frame rate mode : Constant
Frame rate : 20.000 FPS
Color space : YUV
Chroma subsampling : 4:2:0
Bit depth : 8 bits
Scan type : Progressive
Bits/(Pixel*Frame) : 0.024
Stream size : 309 MiB (90%)
Source stream size : 309 MiB (90%)
Writing library : x264 core 146 r2538 121396c
Encoding settings : cabac=1 / ref=1 / deblock=1:0:0 / analyse=0x3:0x113 / me=hex / subme=2 / psy=1 / psy_rd=1.00:0.00 / mixed_ref=0 / me_range=16 / chroma_me=1 / trellis=0 / 8x8dct=1 / cqm=0 / deadzone=21,11 / fast_pskip=1 / chroma_qp_offset=0 / threads=6 / lookahead_threads=2 / sliced_threads=0 / nr=0 / decimate=1 / interlaced=0 / bluray_compat=0 / constrained_intra=0 / bframes=3 / b_pyramid=2 / b_adapt=1 / b_bias=0 / direct=1 / weightb=1 / open_gop=0 / weightp=1 / keyint=250 / keyint_min=20 / scenecut=40 / intra_refresh=0 / rc_lookahead=10 / rc=cbr / mbtree=1 / bitrate=1000 / ratetol=1.0 / qcomp=0.60 / qpmin=0 / qpmax=69 / qpstep=4 / vbv_maxrate=1000 / vbv_bufsize=1000 / nal_hrd=none / filler=1 / ip_ratio=1.40 / aq=1:1.00
Encoded date : UTC 2017-08-11 21:25:24
Tagged date : UTC 2017-08-11 21:25:24
Color range : Limited
Color primaries : BT.709
Transfer characteristics : sRGB/sYCC
Matrix coefficients : BT.709
mdhd_Duration : 2591900

Audio
ID : 1
Format : AAC
Format/Info : Advanced Audio Codec
Format profile : LC
Codec ID : mp4a-40-2
Duration : 43 min 11 s
Source duration : 43 min 11 s
Bit rate mode : Constant
Nominal bit rate : 128 kb/s
Channel(s) : channel0
Channel(s)_Original : 2 channels
Channel positions : Front: L R
Sampling rate : 48.0 kHz
Frame rate : 46.875 FPS (1024 SPF)
Compression mode : Lossy
Source stream size : 32.4 MiB (9%)
Language : English
Encoded date : UTC 2017-08-11 21:25:24
Tagged date : UTC 2017-08-11 21:25:24
mdhd_Duration : 2591829

General
Complete name : TournMasterClass-20_WCOOP 100k разбор2.mp4
Format : MPEG-4
Format profile : Base Media
Codec ID : isom (isom/iso2/avc1/mp41)
File size : 291 MiB
Duration : 36 min 32 s
Overall bit rate : 1 113 kb/s
Encoded date : UTC 2017-08-11 22:02:52
Tagged date : UTC 2017-08-11 22:02:52
Writing application : Open Broadcaster Software v0.659b

Video
ID : 2
Format : AVC
Format/Info : Advanced Video Codec
Format profile : High@L4
Format settings : CABAC / 4 Ref Frames
Format settings, CABAC : Yes
Format settings, RefFrames : 4 frames
Muxing mode : Container profile=High@3.1
Codec ID : avc1
Codec ID/Info : Advanced Video Coding
Duration : 36 min 32 s
Source duration : 36 min 32 s
Bit rate : 1 000 kb/s
Width : 1 920 pixels
Height : 1 080 pixels
Display aspect ratio : 16:9
Frame rate mode : Constant
Frame rate : 20.000 FPS
Color space : YUV
Chroma subsampling : 4:2:0
Bit depth : 8 bits
Scan type : Progressive
Bits/(Pixel*Frame) : 0.024
Stream size : 261 MiB (90%)
Source stream size : 261 MiB (90%)
Writing library : x264 core 146 r2538 121396c
Encoding settings : cabac=1 / ref=1 / deblock=1:0:0 / analyse=0x3:0x113 / me=hex / subme=2 / psy=1 / psy_rd=1.00:0.00 / mixed_ref=0 / me_range=16 / chroma_me=1 / trellis=0 / 8x8dct=1 / cqm=0 / deadzone=21,11 / fast_pskip=1 / chroma_qp_offset=0 / threads=6 / lookahead_threads=2 / sliced_threads=0 / nr=0 / decimate=1 / interlaced=0 / bluray_compat=0 / constrained_intra=0 / bframes=3 / b_pyramid=2 / b_adapt=1 / b_bias=0 / direct=1 / weightb=1 / open_gop=0 / weightp=1 / keyint=250 / keyint_min=20 / scenecut=40 / intra_refresh=0 / rc_lookahead=10 / rc=cbr / mbtree=1 / bitrate=1000 / ratetol=1.0 / qcomp=0.60 / qpmin=0 / qpmax=69 / qpstep=4 / vbv_maxrate=1000 / vbv_bufsize=1000 / nal_hrd=none / filler=1 / ip_ratio=1.40 / aq=1:1.00
Encoded date : UTC 2017-08-11 22:02:52
Tagged date : UTC 2017-08-11 22:02:52
Color range : Limited
Color primaries : BT.709
Transfer characteristics : sRGB/sYCC
Matrix coefficients : BT.709
mdhd_Duration : 2192850

Audio
ID : 1
Format : AAC
Format/Info : Advanced Audio Codec
Format profile : LC
Codec ID : mp4a-40-2
Duration : 36 min 32 s
Source duration : 36 min 32 s
Bit rate mode : Constant
Bit rate : 107 kb/s
Nominal bit rate : 128 kb/s
Channel(s) : channel0
Channel(s)_Original : 2 channels
Channel positions : Front: L R
Sampling rate : 48.0 kHz
Frame rate : 46.875 FPS (1024 SPF)
Compression mode : Lossy
Stream size : 28.0 MiB (10%)
Source stream size : 28.0 MiB (10%)
Language : English
Encoded date : UTC 2017-08-11 22:02:52
Tagged date : UTC 2017-08-11 22:02:52
mdhd_Duration : 2192789

General
Complete name : TournMasterClass-21_WCOOP 100k разбор3.mp4
Format : MPEG-4
Format profile : Base Media
Codec ID : isom (isom/iso2/avc1/mp41)
File size : 463 MiB
Duration : 58 min 22 s
Overall bit rate : 1 109 kb/s
Encoded date : UTC 2017-08-11 23:02:04
Tagged date : UTC 2017-08-11 23:02:04
Writing application : Open Broadcaster Software v0.659b

Video
ID : 2
Format : AVC
Format/Info : Advanced Video Codec
Format profile : High@L4
Format settings : CABAC / 4 Ref Frames
Format settings, CABAC : Yes
Format settings, RefFrames : 4 frames
Muxing mode : Container profile=High@3.1
Codec ID : avc1
Codec ID/Info : Advanced Video Coding
Duration : 58 min 22 s
Source duration : 58 min 22 s
Bit rate : 1 000 kb/s
Width : 1 920 pixels
Height : 1 080 pixels
Display aspect ratio : 16:9
Frame rate mode : Constant
Frame rate : 20.000 FPS
Color space : YUV
Chroma subsampling : 4:2:0
Bit depth : 8 bits
Scan type : Progressive
Bits/(Pixel*Frame) : 0.024
Stream size : 417 MiB (90%)
Source stream size : 417 MiB (90%)
Writing library : x264 core 146 r2538 121396c
Encoding settings : cabac=1 / ref=1 / deblock=1:0:0 / analyse=0x3:0x113 / me=hex / subme=2 / psy=1 / psy_rd=1.00:0.00 / mixed_ref=0 / me_range=16 / chroma_me=1 / trellis=0 / 8x8dct=1 / cqm=0 / deadzone=21,11 / fast_pskip=1 / chroma_qp_offset=0 / threads=6 / lookahead_threads=2 / sliced_threads=0 / nr=0 / decimate=1 / interlaced=0 / bluray_compat=0 / constrained_intra=0 / bframes=3 / b_pyramid=2 / b_adapt=1 / b_bias=0 / direct=1 / weightb=1 / open_gop=0 / weightp=1 / keyint=250 / keyint_min=20 / scenecut=40 / intra_refresh=0 / rc_lookahead=10 / rc=cbr / mbtree=1 / bitrate=1000 / ratetol=1.0 / qcomp=0.60 / qpmin=0 / qpmax=69 / qpstep=4 / vbv_maxrate=1000 / vbv_bufsize=1000 / nal_hrd=none / filler=1 / ip_ratio=1.40 / aq=1:1.00
Encoded date : UTC 2017-08-11 23:02:04
Tagged date : UTC 2017-08-11 23:02:04
Color range : Limited
Color primaries : BT.709
Transfer characteristics : sRGB/sYCC
Matrix coefficients : BT.709
mdhd_Duration : 3502050

Audio
ID : 1
Format : AAC
Format/Info : Advanced Audio Codec
Format profile : LC
Codec ID : mp4a-40-2
Duration : 58 min 22 s
Source duration : 58 min 21 s
Bit rate mode : Constant
Nominal bit rate : 128 kb/s
Channel(s) : channel0
Channel(s)_Original : 2 channels
Channel positions : Front: L R
Sampling rate : 48.0 kHz
Frame rate : 46.875 FPS (1024 SPF)
Compression mode : Lossy
Source stream size : 43.2 MiB (9%)
Language : English
Encoded date : UTC 2017-08-11 23:02:04
Tagged date : UTC 2017-08-11 23:02:04
mdhd_Duration : 3501973
 
Не забывайте говорить Спасибо. Не уходите с раздачи!   
Торрент: Зарегистрирован [24 янв 2019, 17:39] Скачать торрент
Скачать торрент
[ Размер 83.43 КБ / Просмотров 3 ]
Статус:
Проверен
 
.torrent скачан: 0 раз
Хэш: 2643772ea262b8eb25a2ceafe18f09ab7628b945
Размер: 14.46 ГБ (15 524 749 157 байт)
Стать Автором раздачи
 
 
Раздал: 100 ГБ
Скачал: 0 байт
Ратио: Seed.
Сообщения: 108896
Зарегистрирован: 09 апр 2015, 22:31


  • Похожие торренты
    Ответы
    Просмотры
    Последнее сообщение

Вернуться в Спорт и здоровье (Спортивные турниры, фильмы и передачи etc)

Ресурс не предоставляет электронные версии произведений, а занимается лишь коллекционированием и каталогизацией ссылок, присылаемых и публикуемых на форуме нашими читателями. Если вы являетесь правообладателем какого-либо представленного материала и не желаете чтобы ссылка на него находилась в нашем каталоге, свяжитесь с нами и мы незамедлительно удалим её. Файлы для обмена на трекере предоставлены пользователями сайта, и администрация не несёт ответственности за их содержание. Просьба не заливать файлы, защищенные авторскими правами, а также файлы нелегального содержания!
cron