Биатлон. Кубок Мира 2017-18. 5-й этап. Рупольдинг. Женщины. Эстафета 4х6 км [19.01] (2019) HDTVRip 720p

 
 Статистика раздачи 
Размер: 2.94 ГБ   |  Зарегистрирован: 21 янв 2019, 12:17   |   .torrent скачан: 0 раз
Сидеров: 1  [ 0 байт/сек ]     Личеров: 0  [ 0 байт/сек ]  
  

Биатлон. Кубок Мира 2017-18. 5-й этап. Рупольдинг. Женщины. Эстафета 4х6 км [19.01] (2019) HDTVRip 720p

Сообщение explosiveone » 21 янв 2019, 13:18

Кубок мира 2018-19. 5-й этап. Рупольдинг (Германия)
Женщины. Эстафета 4х6 км



Вид спорта: Биатлон
Комментарий: Профессиональный
Язык комментариев: Русский (Губерниев) / Интершум


Описание: Кубок мира 2018-19. 5-й этап. Рупольдинг (Германия). Женщины. Эстафета 4х6 км.


Автор рипа: Злобный Санчез

Качество: HDTVRip
Формат: MKV
Видео кодек: H.264
Аудио кодек: AC3
Видео: MPEG4 Video (H.264) 1280x720 (16:9) 50fps 3800kbps
Аудио: Dolby AC3 48000Hz 2ch 192kbps

01:37:55
Код: Выделить всё
General
Unique ID                                : 21308188268475026702936184254896510447 (0x1007CECAFA386924345F6E67E0E395EF)
Complete name                            : Y:торрентРупольдинг. Женская эстафета.mkv
Format                                   : Matroska
Format version                           : Version 2
File size                                : 2.94 GiB
Duration                                 : 1 h 37 min
Overall bit rate                         : 4 291 kb/s
Writing application                      : Lavf54.63.104
Writing library                          : Lavf54.63.104

Video
ID                                       : 1
Format                                   : AVC
Format/Info                              : Advanced Video Codec
Format profile                           : High@L4
Format settings                          : CABAC / 4 Ref Frames
Format settings, CABAC                   : Yes
Format settings, RefFrames               : 4 frames
Codec ID                                 : V_MPEG4/ISO/AVC
Duration                                 : 1 h 37 min
Bit rate                                 : 3 822 kb/s
Width                                    : 1 280 pixels
Height                                   : 720 pixels
Display aspect ratio                     : 16:9
Frame rate mode                          : Constant
Frame rate                               : 50.000 FPS
Color space                              : YUV
Chroma subsampling                       : 4:2:0
Bit depth                                : 8 bits
Scan type                                : Progressive
Bits/(Pixel*Frame)                       : 0.083
Stream size                              : 2.61 GiB (89%)
Default                                  : No
Forced                                   : No
Color range                              : Limited
Color primaries                          : BT.709
Transfer characteristics                 : BT.709
Matrix coefficients                      : BT.709

Audio #1
ID                                       : 2
Format                                   : AC-3
Format/Info                              : Audio Coding 3
Commercial name                          : Dolby Digital
Codec ID                                 : A_AC3
Duration                                 : 1 h 37 min
Bit rate mode                            : Constant
Bit rate                                 : 192 kb/s
Channel(s)                               : 2 channels
Channel layout                           : L R
Sampling rate                            : 48.0 kHz
Frame rate                               : 31.250 FPS (1536 SPF)
Bit depth                                : 16 bits
Compression mode                         : Lossy
Stream size                              : 134 MiB (4%)
Language                                 : Russian
Service kind                             : Complete Main
Default                                  : Yes
Forced                                   : No

Audio #2
ID                                       : 3
Format                                   : AC-3
Format/Info                              : Audio Coding 3
Commercial name                          : Dolby Digital
Codec ID                                 : A_AC3
Duration                                 : 1 h 37 min
Bit rate mode                            : Constant
Bit rate                                 : 192 kb/s
Channel(s)                               : 2 channels
Channel layout                           : L R
Sampling rate                            : 48.0 kHz
Frame rate                               : 31.250 FPS (1536 SPF)
Bit depth                                : 16 bits
Compression mode                         : Lossy
Stream size                              : 134 MiB (4%)
Service kind                             : Complete Main
Default                                  : No
Forced                                   : No
 
Не забывайте говорить Спасибо. Не уходите с раздачи!   
Торрент: Зарегистрирован [21 янв 2019, 12:17] Скачать торрент
Скачать торрент
[ Размер 15.6 КБ / Просмотров 0 ]
Статус:
Проверен
 
.torrent скачан: 0 раз
Хэш: d3a5d73a76dc2a79dbf0c848e626ba253631c4df
Размер: 2.94 ГБ (3 152 173 254 байт)
Стать Автором раздачи
 
 
Раздал: 100 ГБ
Скачал: 0 байт
Ратио: Seed.
Сообщения: 105390
Зарегистрирован: 09 апр 2015, 22:31


  • Похожие торренты
    Ответы
    Просмотры
    Последнее сообщение

Вернуться в Спорт и здоровье (Спортивные турниры, фильмы и передачи etc)

Ресурс не предоставляет электронные версии произведений, а занимается лишь коллекционированием и каталогизацией ссылок, присылаемых и публикуемых на форуме нашими читателями. Если вы являетесь правообладателем какого-либо представленного материала и не желаете чтобы ссылка на него находилась в нашем каталоге, свяжитесь с нами и мы незамедлительно удалим её. Файлы для обмена на трекере предоставлены пользователями сайта, и администрация не несёт ответственности за их содержание. Просьба не заливать файлы, защищенные авторскими правами, а также файлы нелегального содержания!
cron