Биатлон. Кубок Мира 2017-18. 5-й этап. Рупольдинг. Мужчины. Эстафета 4х7,5 км [18.01] (2019) HDTV 1080i

 
 Статистика раздачи 
Размер: 7.98 ГБ   |  Зарегистрирован: 21 янв 2019, 12:00   |   .torrent скачан: 0 раз
Сидеров: 1  [ 0 байт/сек ]     Личеров: 0  [ 0 байт/сек ]  
  

Биатлон. Кубок Мира 2017-18. 5-й этап. Рупольдинг. Мужчины. Эстафета 4х7,5 км [18.01] (2019) HDTV 1080i

Сообщение explosiveone » 21 янв 2019, 13:18

Кубок мира 2018-19. 5-й этап. Рупольдинг (Германия)
Мужчины. Эстафета 4х7,5 км



Вид спорта: Биатлон
Комментарий: Профессиональный
Язык комментариев: Русский (Губерниев) / Интершум


Описание: Кубок мира 2018-19. 5-й этап. Рупольдинг (Германия). Мужчины. Эстафета 4х7,5 км. С награждением и прочей приблудой. Было 2 затыка - один двухсекундный до начала гонки, второй по середине записи продолжительностью 20 секунд.


Автор рипа: Злобный Санчез

Качество: HDTV
Формат: TS
Видео кодек: AVC
Аудио кодек: MP2
Видео: MPEG4 Video (H264) 1920x1080 (16:9) 25fps 9800kbps
Аудио: MPEG Audio 48000Hz stereo 192kbps

01:46:14
Код: Выделить всё
General
ID                                       : 1 (0x1)
Complete name                            : Y:торрентРупольдинг. Мужская эстафета.ts
Format                                   : MPEG-TS
File size                                : 7.98 GiB
Duration                                 : 1 h 46 min
Overall bit rate mode                    : Variable
Overall bit rate                         : 10.7 Mb/s

Video
ID                                       : 204 (0xCC)
Menu ID                                  : 2204 (0x89C)
Format                                   : AVC
Format/Info                              : Advanced Video Codec
Format profile                           : High@L4
Format settings                          : CABAC / 4 Ref Frames
Format settings, CABAC                   : Yes
Format settings, RefFrames               : 4 frames
Format settings, GOP                     : M=4, N=28
Codec ID                                 : 27
Duration                                 : 1 h 46 min
Bit rate                                 : 9 830 kb/s
Width                                    : 1 920 pixels
Height                                   : 1 080 pixels
Display aspect ratio                     : 16:9
Frame rate                               : 25.000 FPS
Standard                                 : Component
Color space                              : YUV
Chroma subsampling                       : 4:2:0
Bit depth                                : 8 bits
Scan type                                : Interlaced
Scan type, store method                  : Separated fields
Scan order                               : Top Field First
Bits/(Pixel*Frame)                       : 0.190
Stream size                              : 7.29 GiB (91%)
Color range                              : Limited
Color primaries                          : BT.709
Transfer characteristics                 : BT.709
Matrix coefficients                      : BT.709

Audio #1
ID                                       : 304 (0x130)
Menu ID                                  : 2204 (0x89C)
Format                                   : MPEG Audio
Format version                           : Version 1
Format profile                           : Layer 2
Codec ID                                 : 3
Duration                                 : 1 h 46 min
Bit rate mode                            : Constant
Bit rate                                 : 192 kb/s
Channel(s)                               : 2 channels
Sampling rate                            : 48.0 kHz
Frame rate                               : 41.667 FPS (1152 SPF)
Compression mode                         : Lossy
Stream size                              : 146 MiB (2%)
Language                                 : Russian

Audio #2
ID                                       : 305 (0x131)
Menu ID                                  : 2204 (0x89C)
Format                                   : MPEG Audio
Format version                           : Version 1
Format profile                           : Layer 2
Codec ID                                 : 3
Duration                                 : 1 h 46 min
Bit rate mode                            : Constant
Bit rate                                 : 192 kb/s
Channel(s)                               : 2 channels
Sampling rate                            : 48.0 kHz
Frame rate                               : 41.667 FPS (1152 SPF)
Compression mode                         : Lossy
Stream size                              : 146 MiB (2%)
 
Не забывайте говорить Спасибо. Не уходите с раздачи!   
Торрент: Зарегистрирован [21 янв 2019, 12:00] Скачать торрент
Скачать торрент
[ Размер 40.82 КБ / Просмотров 0 ]
Статус:
Проверен
 
.torrent скачан: 0 раз
Хэш: b7da6000a8e88101b8cb2d6c163926304ff9cb18
Размер: 7.98 ГБ (8 565 016 800 байт)
Стать Автором раздачи
 
 
Раздал: 100 ГБ
Скачал: 0 байт
Ратио: Seed.
Сообщения: 109850
Зарегистрирован: 09 апр 2015, 22:31


  • Похожие торренты
    Ответы
    Просмотры
    Последнее сообщение

Вернуться в Спорт и здоровье (Спортивные турниры, фильмы и передачи etc)

Ресурс не предоставляет электронные версии произведений, а занимается лишь коллекционированием и каталогизацией ссылок, присылаемых и публикуемых на форуме нашими читателями. Если вы являетесь правообладателем какого-либо представленного материала и не желаете чтобы ссылка на него находилась в нашем каталоге, свяжитесь с нами и мы незамедлительно удалим её. Файлы для обмена на трекере предоставлены пользователями сайта, и администрация не несёт ответственности за их содержание. Просьба не заливать файлы, защищенные авторскими правами, а также файлы нелегального содержания!
cron