Comedy Баттл (2019.01.18) WEB-DL [H.264/720p-LQ] (сезон 9, выпуск 1)

 
 Статистика раздачи 
Размер: 1.24 ГБ   |  Зарегистрирован: 19 янв 2019, 17:28   |   .torrent скачан: 0 раз
Сидеров: 1  [ 0 байт/сек ]     Личеров: 0  [ 0 байт/сек ]  
  

Comedy Баттл (2019.01.18) WEB-DL [H.264/720p-LQ] (сезон 9, выпуск 1)

Сообщение aLaVodka » 20 янв 2019, 22:05

Comedy Баттл (2019.01.18) WEB-DL [H.264/720p-LQ] (сезон 9, выпуск 1)

Телекомпания: ТНТ
Жанр: Юмор

Ведущий: Павел Воля

Описание:
У смешного не бывает последних сезонов и как вы дорогие зрители видите битва за самые смешные пародии и шутки снова с нами. За годы существования проект "Comedy Баттл" не раз менял своё название и концепцию, но принцип отбора лучших юмористов так и остался в приоритете, а от неудачников избавляются давним способом – сцена сама сбрасывает их вниз. Комедийное шоу канала ТНТ, в котором может принять участие каждый, кто считает себя смешным. Победитель сезона получит 3 миллиона рублей и возможность заключить контракт с любой юмористической программой на ТНТ.

Продолжительность: 00:48:14
Качество видео: WEB-DL
Субтитры: Отсутствуют

Видео: AVC/H.264, 1280x720 (16:9), ~3480 Kbps
Аудио: AC3, 2 ch, 192 Kbps
Код: Выделить всё
Общее
Уникальный идентификатор                 : 173635666869444045943488095315959071750 (0x82A1035586482DDC9153999393C1C406)
Полное имя                               : G:\Comedy.Баттл.mkv
Формат                                   : Matroska
Версия формата                           : Version 2
Размер файла                             : 1,24 Гбайт
Продолжительность                        : 48 м. 14 с.
Общий поток                              : 3672 Кбит/сек
Дата кодирования                         : UTC 2019-01-18 20:48:45
Программа кодирования                    : mkvmerge v7.8.0 ('River Man') 32bit built on Apr  3 2015 12:11:22
Библиотека кодирования                   : libebml v1.3.1 + libmatroska v1.4.2

Видео
Идентификатор                            : 1
Формат                                   : AVC
Формат/Информация                        : Advanced Video Codec
Профиль формата                          : [url=http://nnmclub.to/mailto:High@L4.1]High@L4.1[/url]
Настройки формата                        : CABAC / 9 Ref Frames
Параметр CABAC формата                   : Да
Параметр RefFrames формата               : 9 кадров
Идентификатор кодека                     : V_MPEG4/ISO/AVC
Продолжительность                        : 48 м. 14 с.
Битрейт                                  : 3480 Кбит/сек
Ширина                                   : 1280 пикселей
Высота                                   : 720 пикселей
Соотношение сторон                       : 16:9
Режим частоты кадров                     : Постоянный
Частота кадров                           : 25,000 кадров/сек
Цветовое пространство                    : YUV
Субдискретизация насыщенности            : 4:2:0
Битовая глубина                          : 8 бит
Тип развёртки                            : Прогрессивная
Бит/(Пиксели*Кадры)                      : 0.151
Размер потока                            : 1,15 Гбайт (93%)
Библиотека кодирования                   : x264 core 146 r2538 121396c
Настройки программы                      : cabac=1 / ref=9 / deblock=1:-2:-1 / analyse=0x3:0x133 / me=umh / subme=9 / psy=1 / psy_rd=1.00:0.15 / mixed_ref=1 / me_range=32 / chroma_me=1 / trellis=2 / 8x8dct=1 / cqm=0 / deadzone=21,11 / fast_pskip=0 / chroma_qp_offset=-3 / threads=18 / lookahead_threads=3 / sliced_threads=0 / nr=0 / decimate=1 / interlaced=0 / bluray_compat=0 / constrained_intra=0 / bframes=9 / b_pyramid=2 / b_adapt=2 / b_bias=0 / direct=1 / weightb=1 / open_gop=0 / weightp=2 / keyint=250 / keyint_min=25 / scenecut=40 / intra_refresh=0 / rc=2pass / mbtree=0 / bitrate=3480 / ratetol=1.0 / qcomp=0.60 / qpmin=0 / qpmax=69 / qpstep=4 / cplxblur=20.0 / qblur=0.5 / ip_ratio=1.40 / pb_ratio=1.30 / aq=2:1.00
Default                                  : Да
Forced                                   : Нет
Цветовой диапазон                        : Limited
Основные цвета                           : BT.709
Характеристики трансфера                 : BT.709
Коэффициенты матрицы                     : BT.709

Аудио
Идентификатор                            : 2
Формат                                   : AC-3
Формат/Информация                        : Audio Coding 3
Коммерческое название                    : Dolby Digital
Идентификатор кодека                     : A_AC3
Продолжительность                        : 48 м. 14 с.
Вид битрейта                             : Постоянный
Битрейт                                  : 192 Кбит/сек
Каналы                                   : 2 канала
Channel layout                           : L R
Частота                                  : 48,0 КГц
Частота кадров                           : 31,250 кадров/сек (1536 SPF)
Битовая глубина                          : 16 бит
Метод сжатия                             : С потерями
Размер потока                            : 66,2 Мбайт (5%)
ServiceKind/String                       : Complete Main
Default                                  : Да
Forced                                   : Нет

Скриншоты:




Время раздачи: 24/7 (круглосуточно) (до появления первых 3-5 скачавших)
 
Не забывайте говорить Спасибо. Не уходите с раздачи!   
Торрент: Зарегистрирован [19 янв 2019, 17:28] Скачать торрент
Скачать торрент
[ Размер 13.18 КБ / Просмотров 2 ]
Статус:
Проверен
 
.torrent скачан: 0 раз
Хэш: ff8a3e7a217a31c8dda87a5f8864dfedddd2c012
Размер: 1.24 ГБ (1 328 249 254 байт)
Стать Автором раздачи
 
 
Раздал: 100 ГБ
Скачал: 0 байт
Ратио: Seed.
Сообщения: 196180
Зарегистрирован: 09 апр 2015, 20:00


  • Похожие торренты
    Ответы
    Просмотры
    Последнее сообщение

Вернуться в Пост КВН

Ресурс не предоставляет электронные версии произведений, а занимается лишь коллекционированием и каталогизацией ссылок, присылаемых и публикуемых на форуме нашими читателями. Если вы являетесь правообладателем какого-либо представленного материала и не желаете чтобы ссылка на него находилась в нашем каталоге, свяжитесь с нами и мы незамедлительно удалим её. Файлы для обмена на трекере предоставлены пользователями сайта, и администрация не несёт ответственности за их содержание. Просьба не заливать файлы, защищенные авторскими правами, а также файлы нелегального содержания!