Слэндермэн / Slender Man (2018) BDRemux [H.264/1080p]

 
 Статистика раздачи 
Размер: 18.65 ГБ   |  Зарегистрирован: 19 янв 2019, 16:47   |   .torrent скачан: 0 раз
Сидеров: 1  [ 0 байт/сек ]     Личеров: 0  [ 0 байт/сек ]  
  

Слэндермэн / Slender Man (2018) BDRemux [H.264/1080p]

Сообщение aLaVodka » 20 янв 2019, 22:03

Слэндермэн / Slender Man (2018) BDRemux [H.264/1080p]

Производство: США, Mythology Entertainment, Madhouse Entertainment
Жанр: Ужасы, Триллер, Детектив

Режиссер: Сильвен Уайт
Актеры: Джои Кинг, Джулия Голден Теллес, Жасмин Сабино, Анналиса Бассо, Алекс Фицалан, Тейлор Ричардсон, Хавьер Ботет, Джессика Бланк, Майкл Рейли Бурк, Кевин Чэпмен

Описание:
Слендермен - фильм ужасов режиссёра Силвейна Вайта, основанный на мифе о Слендермене Эрика Кнудсена. Слендермен - это худощавая фигура в похоронном костюме, без лица, без красок и без ясных намерений. Он становится кошмаром множества детей и подростков, которые пытаются укрыться от его преследования, пока однажды не исчезают без следа.

https://www.imdb.com/title/tt5690360/?ref_=plg_rt_1
Возраст: 16+ (зрителям, достигшим 16 лет)
Рейтинг MPAA: PG-13 (детям до 13 лет просмотр нежелателен)
Дата мировой премьеры: 10 августа 2018
Дата российской премьеры: 16 августа 2018, «WDSSPR»

Релиз от: Селезень

Продолжительность: 01:33:11
Качество видео: BDRemux
Перевод: Дублированный (Лицензия)
Субтитры: Русские, английские

Видео: AVC/H.264, 1920x1080, 25.9 Mbps
Аудио #1: AC3, 6 ch, 640 kbps - Русский
Аудио #2: DTS-HD MA, 6 ch, 2154 kbps - Английский
Код: Выделить всё
General
Unique ID                   : 234473308492759365811423236170499977409 (0xB065EAA63447B7E8C93612D4E9AB70C1)
Complete name               : I:\Blu-Ray\Slender.Man.2018.BDREMUX.1080p.seleZen.mkv
Format                      : Matroska
Format version              : Version 4 / Version 2
File size                   : 18.6 GiB
Duration                    : 1 h 33 min
Overall bit rate mode       : Variable
Overall bit rate            : 28.7 Mb/s
Movie name                  : Slender Man 2018 from селезень
Encoded date                : UTC 2019-01-19 00:21:36
Writing application         : mkvmerge v29.0.0 ('Like It Or Not') 64-bit
Writing library             : libebml v1.3.6 + libmatroska v1.4.9

Video
ID                          : 1
Format                      : AVC
Format/Info                 : Advanced Video Codec
Format profile              : [url=http://nnmclub.to/mailto:High@L4.1]High@L4.1[/url]
Format settings             : CABAC / 2 Ref Frames
Format settings, CABAC      : Yes
Format settings, ReFrames   : 2 frames
Format settings, GOP        : M=1, N=10
Codec ID                    : V_MPEG4/ISO/AVC
Duration                    : 1 h 33 min
Bit rate mode               : Variable
Bit rate                    : 25.9 Mb/s
Width                       : 1 920 pixels
Height                      : 1 080 pixels
Display aspect ratio        : 16:9
Frame rate mode             : Constant
Frame rate                  : 23.976 (24000/1001) FPS
Color space                 : YUV
Chroma subsampling          : 4:2:0
Bit depth                   : 8 bits
Scan type                   : Progressive
Bits/(Pixel*Frame)          : 0.520
Stream size                 : 16.8 GiB (90%)
Language                    : English
Default                     : Yes
Forced                      : No

Audio #1
ID                          : 2
Format                      : AC-3
Format/Info                 : Audio Coding 3
Codec ID                    : A_AC3
Duration                    : 1 h 33 min
Bit rate mode               : Constant
Bit rate                    : 640 kb/s
Channel(s)                  : 6 channels
Channel positions           : Front: L C R, Side: L R, LFE
Sampling rate               : 48.0 kHz
Frame rate                  : 31.250 FPS (1536 SPF)
Bit depth                   : 16 bits
Compression mode            : Lossy
Stream size                 : 427 MiB (2%)
Title                       : Dub [License]
Language                    : Russian
Service kind                : Complete Main
Default                     : Yes
Forced                      : Yes

Audio #2
ID                          : 3
Format                      : DTS
Format/Info                 : Digital Theater Systems
Format profile              : MA / Core
Codec ID                    : A_DTS
Duration                    : 1 h 33 min
Bit rate mode               : Variable / Constant
Bit rate                    : 2 154 kb/s / 1 509 kb/s
Channel(s)                  : 6 channels
Channel positions           : Front: L C R, Side: L R, LFE
Sampling rate               : 48.0 kHz
Frame rate                  : 93.750 FPS (512 SPF)
Bit depth                   : 16 bits
Compression mode            : Lossless / Lossy
Stream size                 : 1.40 GiB (8%)
Title                       : Original
Language                    : English
Default                     : No
Forced                      : No

Text #1
ID                          : 4
Format                      : UTF-8
Codec ID                    : S_TEXT/UTF8
Codec ID/Info               : UTF-8 Plain Text
Duration                    : 11 min 2 s
Bit rate                    : 0 b/s
Count of elements           : 2
Stream size                 : 43.0 Bytes (0%)
Title                       : Forced
Language                    : Russian
Default                     : Yes
Forced                      : Yes

Text #2
ID                          : 5
Format                      : UTF-8
Codec ID                    : S_TEXT/UTF8
Codec ID/Info               : UTF-8 Plain Text
Duration                    : 1 h 32 min
Bit rate                    : 54 b/s
Count of elements           : 700
Stream size                 : 36.5 KiB (0%)
Title                       : Full
Language                    : Russian
Default                     : No
Forced                      : No

Text #3
ID                          : 6
Format                      : UTF-8
Codec ID                    : S_TEXT/UTF8
Codec ID/Info               : UTF-8 Plain Text
Duration                    : 1 h 26 min
Bit rate                    : 32 b/s
Count of elements           : 658
Stream size                 : 20.4 KiB (0%)
Title                       : Full
Language                    : English
Default                     : No
Forced                      : No

Menu
00:00:00.000                : ru:Глава 01
00:04:42.782                : ru:Глава 02
00:12:02.263                : ru:Глава 03
00:15:20.920                : ru:Глава 04
00:22:07.368                : ru:Глава 05
00:28:44.431                : ru:Глава 06
00:32:14.599                : ru:Глава 07
00:40:31.763                : ru:Глава 08
00:45:50.790                : ru:Глава 09
00:52:40.199                : ru:Глава 10
00:55:34.498                : ru:Глава 11
01:00:42.681                : ru:Глава 12
01:05:19.624                : ru:Глава 13
01:08:53.963                : ru:Глава 14
01:15:11.340                : ru:Глава 15
01:21:12.743                : ru:Глава 16

Скриншоты:




Время раздачи: 24/7 (до появления первых 3-5 скачавших)
 
Не забывайте говорить Спасибо. Не уходите с раздачи!   
Торрент: Зарегистрирован [19 янв 2019, 16:47] Скачать торрент
Скачать торрент
[ Размер 24.18 КБ / Просмотров 10 ]
Статус:
Проверен
 
.torrent скачан: 0 раз
Хэш: f7deb3d2e1c6994ec857218c341846039065d6f4
Размер: 18.65 ГБ (20 023 314 510 байт)
Стать Автором раздачи
 
 
Раздал: 100 ГБ
Скачал: 0 байт
Ратио: Seed.
Сообщения: 197715
Зарегистрирован: 09 апр 2015, 20:00


  • Похожие торренты
    Ответы
    Просмотры
    Последнее сообщение

Вернуться в HD Video на модерации

Ресурс не предоставляет электронные версии произведений, а занимается лишь коллекционированием и каталогизацией ссылок, присылаемых и публикуемых на форуме нашими читателями. Если вы являетесь правообладателем какого-либо представленного материала и не желаете чтобы ссылка на него находилась в нашем каталоге, свяжитесь с нами и мы незамедлительно удалим её. Файлы для обмена на трекере предоставлены пользователями сайта, и администрация не несёт ответственности за их содержание. Просьба не заливать файлы, защищенные авторскими правами, а также файлы нелегального содержания!