Рыбалка Сергей | Легенды и мифы Древней Греции: Тесей [«Вимбо»] [2006, lossless]

 
 Статистика раздачи 
Размер: 376.82 МБ   |  Зарегистрирован: 19 янв 2019, 14:43   |   .torrent скачан: 0 раз
Сидеров: 1  [ 0 байт/сек ]     Личеров: 0  [ 0 байт/сек ]  
  

Рыбалка Сергей | Легенды и мифы Древней Греции: Тесей [«Вимбо»] [2006, lossless]

Сообщение aLaVodka » 20 янв 2019, 20:04

Рыбалка Сергей | Легенды и мифы Древней Греции: Тесей (2006) [WAVPack]

Год выпуска CD: 2006
Автор сценария / режиссёр / музыка: Сергей Рыбалка
Исполнители: Дмитрий Борисов, Наталья Войник, Марина Волкова, Дмитрий Гончаров, Мария Горбачёва, Руслана Дедик, Наталья Зорькина, Сергей Кашуцкий, Николай Конев, Екатерина Кочеткова, Николай Прилуцкий, Сергей Рыбалка, Елена Суворова
Жанр: Инсценировка / аудиоспектакль
Издатель, номер по каталогу: Вимбо, VM-D040
Аудио кодек: WAVPack
Тип рипа: image+.cue
Битрейт аудио: lossless
Продолжительность: 1:08:28

Производитель диска: Россия
Штрихкод издания: 4602074101322
Источник: ley-barmaley / lossless-galaxy
Сканирование: full scans (JPG, 300dpi)

Описание: Тесей - величайший герой древнегреческой мифологии. Благородный и бесстрашный. Именно он победил ужасного Минотавра - чудовище с головой быка.
Минотавр заключён в Лабиринте, выйти из которого невозможно. Раз в девять лет семь самых смелых юношей и семь самых прекрасных девушек входили в Лабиринт. И никого не пощадил свирепый монстр! Как же Тесей одолеет чудовище? Кто поможет ему?
Exact Audio Copy V1.0 beta 3 from 29. August 2011
Отчёт EAC об извлечении, выполненном 16. ноября 2012, 13:31
Дмитрий Борисов, Наталья Войник, Марина Волкова, Дмитрий Гончаров, Мария Горбачёва, Руслана Дедик, Наталья Зорькина и другие / Легенды и мифы Древней Греции: Тесей (Вимбо, VM-D040)
Дисковод: ASUS DRW-1814BL Adapter: 0 ID: 0
Режим чтения : Достоверность
Использование точного потока : Да
Отключение кэша аудио : Да
Использование указателей C2 : Нет
Коррекция смещения при чтении : 6
Способность читать области Lead-in и Lead-out : Нет
Заполнение пропущенных сэмплов тишиной : Да
Удаление блоков с тишиной в начале и конце : Нет
При вычислениях CRC использовались нулевые сэмплы : Да
Интерфейс : Встроенный Win32-интерфейс для Win NT/2000
Выходной формат : Внутренние WAV-операции
Формат сэмплов : 44.100 Гц; 16 бит; стерео
TOC извлечённого CD
Трек | Старт | Длительность | Начальный сектор | Конечный сектор
---------------------------------------------------------------------
1 | 0:00.00 | 11:51.00 | 0 | 53324
2 | 11:51.00 | 10:36.00 | 53325 | 101024
3 | 22:27.00 | 10:20.01 | 101025 | 147525
4 | 32:47.01 | 6:10.01 | 147526 | 175276
5 | 38:57.02 | 6:22.00 | 175277 | 203926
6 | 45:19.02 | 7:46.00 | 203927 | 238876
7 | 53:05.02 | 8:23.00 | 238877 | 276601
Характеристики диапазона извлечения и сообщения об ошибках
Выбранный диапазон
Имя файла G:\Легенды и мифы Древней Греции - Тесей (Вимбо, VM-D040).wav
Пиковый уровень 98.8 %
Скорость извлечения 4.7 X
Качество диапазона 100.0 %
CRC теста 809137A7
CRC копии 809137A7
Копирование... OK
Ошибок не произошло
AccurateRip: сводка
Трек 1 отсутствует в базе данных
Трек 2 отсутствует в базе данных
Трек 3 отсутствует в базе данных
Трек 4 отсутствует в базе данных
Трек 5 отсутствует в базе данных
Трек 6 отсутствует в базе данных
Трек 7 отсутствует в базе данных
Ни одного трека нет в базе AccurateRip
Конец отчёта
---- CUETools DB Plugin V2.1.3
[CTDB TOCID: 3xbJFdjwa9Jt1y2jaQJwile9CfA-] disk not present in database, Submit result: 3xbJFdjwa9Jt1y2jaQJwile9CfA- has been uploaded
==== Контрольная сумма отчёта 7307EB358A20C07C528CC85EF101AA71EBE97ED794DA6A1B2B0B7454D9E0BF58 ====
-----------------------
DON'T MODIFY THIS FILE
-----------------------
PERFORMER: auCDtect Task Manager, ver. 1.5.1RC3 build 1.5.1.4
Copyright (c) 2008-2010 y-soft. All rights reserved
http://y-soft.org
ANALYZER: auCDtect: CD records authenticity detector, version 0.8.2
Copyright (c) 2004 Oleg Berngardt. All rights reserved.
Copyright (c) 2004 Alexander Djourik. All rights reserved.
FILE: Легенды и мифы Древней Греции - Тесей (Вимбо, VM-D040).wv
Size: 381791818 Hash: 272B981557ACFBA39B636ADA92F77273 Accuracy: -m0
Conclusion: CDDA 100%
Signature: 46761111512E83EB4982DFD96B15DF30D8D01F65
FILE: Легенды и мифы Древней Греции - Тесей (Вимбо, VM-D040).wav
Size: 650567948 Hash: 272B981557ACFBA39B636ADA92F77273 Accuracy: -m0
Conclusion: CDDA 100%
Signature: 4711578481E7CF0E536E056B5142C4D0F03027A0
Время раздачи: с 23:00 до 7:00 (до появления первых 3-5 скачавших)
 
Не забывайте говорить Спасибо. Не уходите с раздачи!   
Торрент: Зарегистрирован [19 янв 2019, 14:43] Скачать торрент
Скачать торрент
[ Размер 17.66 КБ / Просмотров 3 ]
Статус:
Проверен
 
.torrent скачан: 0 раз
Хэш: 706a0998efa1d36fbe10ca1243f81e7ffe385b64
Размер: 376.82 МБ (395 121 336 байт)
Стать Автором раздачи
 
 
Раздал: 100 ГБ
Скачал: 0 байт
Ратио: Seed.
Сообщения: 193001
Зарегистрирован: 09 апр 2015, 20:00


  • Похожие торренты
    Ответы
    Просмотры
    Последнее сообщение

Вернуться в Детская литература (аудиокниги)

Ресурс не предоставляет электронные версии произведений, а занимается лишь коллекционированием и каталогизацией ссылок, присылаемых и публикуемых на форуме нашими читателями. Если вы являетесь правообладателем какого-либо представленного материала и не желаете чтобы ссылка на него находилась в нашем каталоге, свяжитесь с нами и мы незамедлительно удалим её. Файлы для обмена на трекере предоставлены пользователями сайта, и администрация не несёт ответственности за их содержание. Просьба не заливать файлы, защищенные авторскими правами, а также файлы нелегального содержания!