Братья Систерс / The Sisters Brothers (2018) WEB-DL [1080p] ATV

 
 Статистика раздачи 
Размер: 4.65 ГБ   |  Зарегистрирован: 19 янв 2019, 13:22   |   .torrent скачан: 0 раз
Сидеров: 1  [ 0 байт/сек ]     Личеров: 0  [ 0 байт/сек ]  
  

Братья Систерс / The Sisters Brothers (2018) WEB-DL [1080p] ATV

Сообщение aLaVodka » 20 янв 2019, 20:00

Братья Систерс / The Sisters Brothers (2018) WEB-DL [1080p] ATV

«Brothers by blood. Sisters by name»
Год выпуска: 2018
Производство: Франция, Испания, Румыния, США, Бельгия
Жанр: Драма, комедия, криминал, приключения, вестерн
Продолжительность: 01:56:32

Перевод: Дублированный (iTunes)
Субтитры: Нет
Режиссер: Жак Одиар
Актеры: Джон Си Райли, Хоакин Феникс, Джейк Джилленхол, Риз Ахмед, Ребекка Рут, Эллисон Толман, Рутгер Хауэр, Кэрол Кейн, Патрис Коссоно, Зак Эбботт

Мировая премьера: 2 сентября 2018

https://www.imdb.com/title/tt4971344/?ref_=plg_rt_1

Описание: Братья-беспредельщики по фамилии Систерс по заданию таинственного Командора должны прикончить некоего Уорма, золотоискателя-авантюриста. Фартовые по жизни охотники за головами гонятся за новой жертвой, не подозревая, что их разведчик не так-то прост… Начинается игра на выживание: острый ум против безбашенной силы.
Качество: WEB-DL 1080p
Контейнер: M4V
Видео: H.264, 1920x804, 2.40:1, 4 623 Kbps, 25.000 fps

Аудио 1: Русский/Дублированный (iTunes), AAC / 2.0 / 160 Kbps / 48.0 KHz
Аудио 2: Английский/Оригинальная дорожка , AAC / 2.0 / 160 Kbps / 48.0 KHz
Аудио 3: Русский/Дублированный (iTunes), AC-3 / 5.1 / 384 Kbps / 48.0 KHz
Аудио 4: Английский/Оригинальная дорожка , AC-3 / 5.1 / 384 Kbps / 48.0 KHz
Код: выделить все
Sort Name: The Sisters Brothers
XID: Apple:vendor_id:2018-968375
contentID: 1438833183
Copyright: © 2018 Annapurna Productions, LLC and Why Not Productions. All rights reserved.
Screenwriters: Жак Одиар, Томас Бидеген, Патрик Девитт
Producers: Паскаль Кочето, Майкл Де Лука, Элисон Дики
Director: Жак Одиар
Cast: Джон Си Райли, Хоакин Феникс, Джейк Джилленхол, Риз Ахмед, Ребекка Рут, Эллисон Толман, Рутгер Хауэр, Кэрол Кейн, Патрис Коссоно, Зак Эбботт
Studio: Annapurna
Rating: 5
Long Description: Братья-беспредельщики по фамилии Систерс по заданию таинственного Командора должны прикончить некоего Уорма, золотоискателя-авантюриста. Фартовые по жизни охотники за головами гонятся за новой жертвой, не подозревая, что их разведчик не так-то прост… Начинается игра на выживание: острый ум против безбашенной силы.
Description: Братья-беспредельщики по фамилии Систерс по заданию таинственного Командора должны прикончить некоего Уорма, золотоискателя-авантюриста. Фартовые по жизни охотники за головами гонятся за новой жертвой, не подозревая, что их разведчик не так-то прост…
Release Date: 2018-09-21T07:00:00Z
Genre: Drama
Artist: Jacques Audiard
Name: The Sisters Brothers
Код: выделить все
General
Complete name : /Users/imac/HandBrake/The.Sisters.Brothers.WEB-DL.1080p.m4v
Format : MPEG-4
Codec ID : M4V
File size : 4.65 GiB
Duration : 1h 56mn
Overall bit rate mode : Variable
Overall bit rate : 5 712 Kbps
Movie name : The Sisters Brothers
Performer : Jacques Audiard
Director : Жак Одиар
Actor : Джон Си Райли / Хоакин Феникс / Джейк Джилленхол / Риз Ахмед / Ребекка Рут / Эллисон Толман / Рутгер Хауэр / Кэрол Кейн / Патрис Коссоно / Зак Эбботт
Screenplay by : Жак Одиар / Томас Бидеген / Патрик Девитт
Producer : Паскаль Кочето / Майкл Де Лука / Элисон Дики
Production studio : Annapurna
Genre : Drama
ContentType : Short Film
Description : Братья-беспредельщики по фамилии Систерс по заданию таинственного Командора должны прикончить некоего Уорма, золотоискателя-авантюриста. Фартовые по жизни охотники за головами гонятся за новой жертвой, не подозревая, что их разведчик не так-то прост…
Recorded date : UTC 2018-09-21 07:00:00
Encoded date : UTC 2019-01-19 10:02:19
Tagged date : UTC 2019-01-19 10:05:45
Copyright : © 2018 Annapurna Productions, LLC and Why Not Productions. All rights reserved.
Cover : Yes
Rating : None
Title/Sort : The Sisters Brothers
LongDescription : Братья-беспредельщики по фамилии Систерс по заданию таинственного Командора должны прикончить некоего Уорма, золотоискателя-авантюриста. Фартовые по жизни охотники за головами гонятся за новой жертвой, не подозревая, что их разведчик не так-то прост… Начинается игра на выживание: острый ум против безбашенной силы.
AppleStoreCatalogID : 1438833183
Vendor : Apple:vendor_id:2018-968375
ContentRating : mpaa|R|400|

Video #1
ID : 1
Format : AVC
Format/Info : Advanced Video Codec
Format profile : High@L4
Format settings, CABAC : Yes
Format settings, ReFrames : 5 frames
Codec ID : avc1
Codec ID/Info : Advanced Video Coding
Duration : 1h 56mn
Bit rate : 4 623 Kbps
Width : 1 920 pixels
Height : 804 pixels
Display aspect ratio : 2.40:1
Frame rate mode : Constant
Frame rate : 25.000 fps
Color space : YUV
Chroma subsampling : 4:2:0
Bit depth : 8 bits
Scan type : Progressive
Bits/(Pixel*Frame) : 0.120
Stream size : 3.76 GiB (81%)
Title : Main Program
Language : English
Encoded date : UTC 2019-01-19 10:02:19
Tagged date : UTC 2019-01-19 10:02:29
Color range : Limited
Color primaries : BT.709
Transfer characteristics : BT.709
Matrix coefficients : BT.709

Video #2
ID : 7
Format : JPEG
Codec ID : jpeg
Duration : 1h 56mn
Bit rate mode : Variable
Bit rate : 428 bps
Width : 640 pixels
Height : 268 pixels
Display aspect ratio : 2.40:1
Frame rate mode : Variable
Frame rate : 0.002 fps
Minimum frame rate : 0.001 fps
Maximum frame rate : 0.004 fps
Color space : YUV
Chroma subsampling : 4:2:0
Bit depth : 8 bits
Compression mode : Lossy
Bits/(Pixel*Frame) : 1.248
Stream size : 418 KiB (0%)
Title : Chapter Images
Language : English
Encoded date : UTC 2019-01-19 10:02:38
Tagged date : UTC 2019-01-19 10:02:39

Audio #1
ID : 2
Format : AAC
Format/Info : Advanced Audio Codec
Format profile : LC
Codec ID : 40
Duration : 1h 56mn
Source duration : 1h 56mn
Bit rate mode : Variable
Bit rate : 157 Kbps
Maximum bit rate : 246 Kbps
Channel(s) : 2 channels
Channel positions : Front: L R
Sampling rate : 48.0 KHz
Compression mode : Lossy
Stream size : 131 MiB (3%)
Source stream size : 131 MiB (3%)
Title : Russian Stereo
Language : Russian
Encoded date : UTC 2019-01-19 10:02:19
Tagged date : UTC 2019-01-19 10:02:31

Audio #2
ID : 3
Format : AAC
Format/Info : Advanced Audio Codec
Format profile : LC
Codec ID : 40
Duration : 1h 56mn
Source duration : 1h 56mn
Bit rate mode : Variable
Bit rate : 156 Kbps
Maximum bit rate : 258 Kbps
Channel(s) : 2 channels
Channel positions : Front: L R
Sampling rate : 48.0 KHz
Compression mode : Lossy
Stream size : 130 MiB (3%)
Source stream size : 130 MiB (3%)
Title : English Stereo
Language : English
Encoded date : UTC 2019-01-19 10:02:19
Tagged date : UTC 2019-01-19 10:02:31

Audio #3
ID : 4
Format : AC-3
Format/Info : Audio Coding 3
Mode extension : CM (complete main)
Format settings, Endianness : Big
Codec ID : ac-3
Duration : 1h 56mn
Bit rate mode : Constant
Bit rate : 384 Kbps
Channel(s) : 6 channels
Channel positions : Front: L C R, Side: L R, LFE
Sampling rate : 48.0 KHz
Bit depth : 16 bits
Compression mode : Lossy
Stream size : 320 MiB (7%)
Title : Russian DD 5.1
Language : Russian
Encoded date : UTC 2019-01-19 10:02:19
Tagged date : UTC 2019-01-19 10:02:29

Audio #4
ID : 5
Format : AC-3
Format/Info : Audio Coding 3
Mode extension : CM (complete main)
Format settings, Endianness : Big
Codec ID : ac-3
Duration : 1h 56mn
Bit rate mode : Constant
Bit rate : 384 Kbps
Channel(s) : 6 channels
Channel positions : Front: L C R, Side: L R, LFE
Sampling rate : 48.0 KHz
Bit depth : 16 bits
Compression mode : Lossy
Stream size : 320 MiB (7%)
Title : English DD 5.1
Language : English
Encoded date : UTC 2019-01-19 10:02:19
Tagged date : UTC 2019-01-19 10:02:29

Menu #1
00:00:00.000 : Глава 1
00:04:30.280 : Глава 2
00:10:44.480 : Глава 3
00:16:09.720 : Глава 4
00:23:56.880 : Глава 5
00:27:43.640 : Глава 6
00:33:29.160 : Глава 7
00:39:58.560 : Глава 8
00:52:42.080 : Глава 9
01:01:32.200 : Глава 10
01:07:46.000 : Глава 11
01:14:35.800 : Глава 12
01:25:01.280 : Глава 13
01:30:04.879 : Глава 14
01:35:21.480 : Глава 15
01:45:46.160 : Глава 16

Menu #2
ID : 6
Codec ID : text
Duration : 1h 56mn
Language : English
Encoded date : UTC 2019-01-19 10:02:32
Tagged date : UTC 2019-01-19 10:02:32
00:00:00.000 : Глава 1
00:04:30.280 : Глава 2
00:10:44.480 : Глава 3
00:16:09.720 : Глава 4
00:23:56.880 : Глава 5
00:27:43.640 : Глава 6
00:33:29.160 : Глава 7
00:39:58.560 : Глава 8
00:52:42.080 : Глава 9
01:01:32.200 : Глава 10
01:07:46.000 : Глава 11
01:14:35.800 : Глава 12
01:25:01.280 : Глава 13
01:30:04.879 : Глава 14
01:35:21.480 : Глава 15
01:45:46.160 : Глава 16
Bit rate mode : VBR

Скриншоты
:




Релиз подготовлен для просмотра на Apple TV, iPad, iPhone, iPod Touch.
Для просмотра данного релиза на компьютере с ОС Windows рекомендуется использовать VLC media player
 
Не забывайте говорить Спасибо. Не уходите с раздачи!   
Торрент: Зарегистрирован [19 янв 2019, 13:22] Скачать торрент
Скачать торрент
[ Размер 47.31 КБ / Просмотров 4 ]
Статус:
Проверен
 
.torrent скачан: 0 раз
Хэш: 1583b4c4b3a2e68ac6aaed62389189c70ae466f2
Размер: 4.65 ГБ (4 992 660 034 байт)
Стать Автором раздачи
 
 
Раздал: 100 ГБ
Скачал: 0 байт
Ратио: Seed.
Сообщения: 195758
Зарегистрирован: 09 апр 2015, 20:00


  • Похожие торренты
    Ответы
    Просмотры
    Последнее сообщение

Вернуться в Фильмы HD для Apple TV

Ресурс не предоставляет электронные версии произведений, а занимается лишь коллекционированием и каталогизацией ссылок, присылаемых и публикуемых на форуме нашими читателями. Если вы являетесь правообладателем какого-либо представленного материала и не желаете чтобы ссылка на него находилась в нашем каталоге, свяжитесь с нами и мы незамедлительно удалим её. Файлы для обмена на трекере предоставлены пользователями сайта, и администрация не несёт ответственности за их содержание. Просьба не заливать файлы, защищенные авторскими правами, а также файлы нелегального содержания!