Секретная жизнь собак / Dogs: Their Secret Lives (2015) HDTVRip [H.264/1080p-LQ] (Сезон 2, серии 1-3 из 3)

 
 Статистика раздачи 
Размер: 4.14 ГБ   |  Зарегистрирован: 19 янв 2019, 09:21   |   .torrent скачан: 0 раз
Сидеров: 1  [ 0 байт/сек ]     Личеров: 0  [ 0 байт/сек ]  
  

Секретная жизнь собак / Dogs: Their Secret Lives (2015) HDTVRip [H.264/1080p-LQ] (Сезон 2, серии 1-3 из 3)

Сообщение aLaVodka » 20 янв 2019, 16:07

Секретная жизнь собак / Dogs: Their Secret Lives (2015) HDTVRip [H.264/1080p-LQ] (Сезон 2, серии 1-3 из 3)

Производство: Великобритания, Arrow Media
Жанр: Документальный, исследования, кинология

Режиссер: Кирсти Уилсон
Участники: Эмили Блэквелл , Марк Эванс

Описание:
Скрытые камеры и новаторские исследования ведущих ученых-кинологов позволяют узнать, чем занимаются собаки в отсутствие хозяев, и какие проблемы у них возникают.

https://www.imdb.com/title/tt3969262/?ref_=plg_rt_1

Релиз от: рип Zakol
Продолжительность: серии x ~ 00:46:00
Качество видео: HDTVRip
Перевод: Одноголосый закадровый, профессиональный (SDI Media)
Субтитры: отсутствуют

Видео: AVC/H.264, 1920x1080, ~4000 Kbps
Аудио: AAC, 2 ch, 192 Kbps (читает: Анатолий Фечин)
Код: Выделить всё
Общее
Уникальный идентификатор                 : 22258432771639190834697585543908183465 (0x10BED176CCF2E435664323D156A04DA9)
Полное имя                               : F:\КИНО\Секретная жизнь собак 1080 (2015)\2 Секретная жизнь собак.mkv
Формат                                   : Matroska
Версия формата                           : Version 4
Размер файла                             : 1,37 Гбайт
Продолжительность                        : 46 м. 3 с.
Режим общего битрейта                    : Переменный
Общий поток                              : 4255 Кбит/сек
Дата кодирования                         : UTC 2019-01-19 05:55:59
Программа кодирования                    : mkvmerge v28.1.0 ('Morning Child') 64-bit
Библиотека кодирования                   : libebml v1.3.6 + libmatroska v1.4.9

Видео
Идентификатор                            : 1
Формат                                   : AVC
Формат/Информация                        : Advanced Video Codec
Профиль формата                          : High@L4
Настройки формата                        : CABAC / 4 Ref Frames
Параметр CABAC формата                   : Да
Параметр RefFrames формата               : 4 кадра
Идентификатор кодека                     : V_MPEG4/ISO/AVC
Продолжительность                        : 46 м. 3 с.
Вид битрейта                             : Переменный
Битрейт                                  : 4063 Кбит/сек
Максимальный битрейт                     : 4500 Кбит/сек
Ширина                                   : 1920 пикселей
Высота                                   : 1080 пикселей
Соотношение сторон                       : 16:9
Режим частоты кадров                     : Постоянный
Частота кадров                           : 25,000 кадров/сек
Цветовое пространство                    : YUV
Субдискретизация насыщенности            : 4:2:0
Битовая глубина                          : 8 бит
Тип развёртки                            : Прогрессивная
Бит/(Пиксели*Кадры)                      : 0.078
Размер потока                            : 1,31 Гбайт (95%)
Default                                  : Нет
Forced                                   : Нет

Аудио
Идентификатор                            : 2
Формат                                   : AAC LC
Формат/Информация                        : Advanced Audio Codec Low Complexity
Идентификатор кодека                     : A_AAC-2
Продолжительность                        : 46 м. 3 с.
Битрейт                                  : 192 Кбит/сек
Каналы                                   : 2 канала
Channel layout                           : L R
Частота                                  : 48,0 КГц
Частота кадров                           : 46,875 кадров/сек (1024 SPF)
Метод сжатия                             : С потерями
Размер потока                            : 62,4 Мбайт (4%)
Язык                                     : Russian
Default                                  : Да
Forced                                   : Нет

Скриншоты:




Время раздачи: с 18:00 до 23:00 (до появления первых 3-5 скачавших)
 
Не забывайте говорить Спасибо. Не уходите с раздачи!   
Торрент: Зарегистрирован [19 янв 2019, 09:21] Скачать торрент
Скачать торрент
[ Размер 21.84 КБ / Просмотров 8 ]
Статус:
Проверен
 
.torrent скачан: 0 раз
Хэш: 9d22f873f7895bc856fb6f09389bf0aba643d2ff
Размер: 4.14 ГБ (4 449 898 736 байт)
Стать Автором раздачи
 
 
Раздал: 100 ГБ
Скачал: 0 байт
Ратио: Seed.
Сообщения: 196180
Зарегистрирован: 09 апр 2015, 20:00


  • Похожие торренты
    Ответы
    Просмотры
    Последнее сообщение

Вернуться в Флора и фауна (видео)

Ресурс не предоставляет электронные версии произведений, а занимается лишь коллекционированием и каталогизацией ссылок, присылаемых и публикуемых на форуме нашими читателями. Если вы являетесь правообладателем какого-либо представленного материала и не желаете чтобы ссылка на него находилась в нашем каталоге, свяжитесь с нами и мы незамедлительно удалим её. Файлы для обмена на трекере предоставлены пользователями сайта, и администрация не несёт ответственности за их содержание. Просьба не заливать файлы, защищенные авторскими правами, а также файлы нелегального содержания!