Анеко Юсаги | Становление Героя Щита [Книга 13] (Adrenalin28, 2017) [m4b|HE-AAC]

 
 Статистика раздачи 
Размер: 116.77 МБ   |  Зарегистрирован: 18 янв 2019, 18:54   |   .torrent скачан: 0 раз
Сидеров: 1  [ 0 байт/сек ]     Личеров: 0  [ 0 байт/сек ]  
  

Анеко Юсаги | Становление Героя Щита [Книга 13] (Adrenalin28, 2017) [m4b|HE-AAC]

Сообщение aLaVodka » 20 янв 2019, 14:53

Становление Героя Щита 13

Год выпуска: 2017
Фамилия автора: Анеко
Имя автора: Юсаги
Исполнитель: Adrenalin28
Цикл/серия: Становление Героя Щита
Номер книги: 13
Жанр: ЛитРПГ, Фэнтези, Приключения
Тип издания: аудиокнига своими руками
Категория: аудиокнига

Формат: m4b
Аудиокодек: HE-AAC
Битрейт: 40 kbps
Частота дискретизации: 44.1 kHz
Количество каналов (моно-стерео): Моно
Разбивка на части: нет
Разбивка на главы: есть
Вшитые обложки: есть
Музыкальное сопровождение: нет
Время звучания: 06:33:50

Описание: После того, как Герой Щита и его верные бойцы отбились от возникших словно из ниоткуда убийц, нацелившихся на Рафталию и ясно давших понять, что они не успокоятся, пока не добьются своего, Наофуми принимает решение отправиться в далёкую и загадочную страну Кутенро, чтобы задавить проблему в зародыше. Вот только поскольку по всем признакам убийц посылает высшее руководство страны, его ответное нападение равносильно объявлению войны...
Код: выделить всеОбщее
Полное имя                               : /Volumes/Main/Data/Book/Seed/01 Становление Героя Щита 13.m4b
Формат                                   : MPEG-4
Профиль формата                          : Base Media / Version 2
Идентификатор кодека                     : mp42 (mp41/mp42/isom)
Размер файла                             : 117 Мбайт
Продолжительность                        : 6 ч. 33 м.
Общий поток                              : 41,5 Кбит/сек
Название фильма                          : Становление Героя Щита 13
Альбом                                   : Становление Героя Щита 13
Трек/Положение                           : 1
Трек/Всего                               : 1
Исполнитель                              : Юсаги Анеко
Жанр                                     : Audiobooks
Тип содержимого                          : Audiobook
Дата кодирования                         : UTC 2019-01-17 16:30:06
Дата пометки                             : UTC 2019-01-17 16:30:10
Программа кодирования                    : Audiobook Builder 2.0 (www.splasm.com), macOS 10.14.2
Обложка                                  : Yes

Видео
Идентификатор                            : 2
Формат                                   : JPEG
Идентификатор кодека                     : jpeg
Продолжительность                        : 6 ч. 33 м.
Битрейт                                  : 13 бит/сек
Ширина                                   : 352 пикселя
Высота                                   : 500 пикселей
Соотношение сторон                       : 0,704
Режим частоты кадров                     : Постоянный
Частота кадров                           : 0,000 кадр/сек
Цветовое пространство                    : YUV
Субдискретизация насыщенности            : 4:2:0
Битовая глубина                          : 8 бит
Тип развёртки                            : Прогрессивная
Метод сжатия                             : С потерями
Размер потока                            : 37,3 Кбайт (0%)
Заголовок                                : Core Media Video
Дата кодирования                         : UTC 2019-01-17 16:30:06
Дата пометки                             : UTC 2019-01-17 16:30:10
Menu For                                 : 1

Аудио
Идентификатор                            : 1
Формат                                   : AAC
Формат/Информация                        : Advanced Audio Codec
Профиль формата                          : HE-AAC / LC
Настройки формата                        : Explicit
Идентификатор кодека                     : mp4a-40-2
Продолжительность                        : 6 ч. 33 м.
Продолжительность оригинала              : 6 ч. 33 м.
Вид битрейта                             : Постоянный
Битрейт                                  : 40,0 Кбит/сек
Каналы                                   : 2 канала
Channel(s)_Original                      : 1 канал
Расположение каналов                     : Front: C
Частота                                  : 44,1 КГц / 22,05 КГц
Частота кадров                           : 21,533 кадра/сек (1024 SPF)
Метод сжатия                             : С потерями
Размер потока                            : 114 Мбайт (98%)
Размер потока оригинала                  : 114 Мбайт (98%)
Заголовок                                : Core Media Audio
Дата кодирования                         : UTC 2019-01-17 16:30:06
Дата пометки                             : UTC 2019-01-17 16:30:10
Menus                                    : 3,2

Меню
Идентификатор                            : 3
Идентификатор кодека                     : text
Продолжительность                        : 6 ч. 33 м.
Заголовок                                : Core Media Text
Дата кодирования                         : UTC 2019-01-17 16:30:06
Дата пометки                             : UTC 2019-01-17 16:30:10
Menu For                                 : 1
00:00:00.000                             : 01 Герой Щита v13 - Пролог 01
00:14:37.830                             : 02 Герой Щита v13 - Пролог 02
00:27:47.431                             : 03 Герой Щита v13 - Глава 01 01
00:39:14.921                             : 04 Герой Щита v13 - Глава 01 02
00:51:14.881                             : 05 Герой Щита v13 - Глава 02 01
01:01:45.293                             : 06 Герой Щита v13 - Глава 02 02
01:14:25.351                             : 07 Герой Щита v13 - Глава 03 01
01:21:30.938                             : 08 Герой Щита v13 - Глава 03 02
01:30:57.951                             : 09 Герой Щита v13 - Глава 04 01
01:48:39.906                             : 10 Герой Щита v13 - Глава 04 02
01:59:22.205                             : 11 Герой Щита v13 - Глава 05
02:13:31.653                             : 12 Герой Щита v13 - Глава 06 01
02:21:07.646                             : 13 Герой Щита v13 - Глава 06 02
02:32:50.758                             : 14 Герой Щита v13 - Глава 07
02:51:25.585                             : 15 Герой Щита v13 - Глава 08 01
03:10:44.611                             : 16 Герой Щита v13 - Глава 08 02
03:25:50.903                             : 17 Герой Щита v13 - Глава 09 01
03:37:54.311                             : 18 Герой Щита v13 - Глава 09 02
03:55:14.323                             : 19 Герой Щита v13 - Глава 10
04:08:41.140                             : 20 Герой Щита v13 - Глава 11 01
04:18:33.178                             : 21 Герой Щита v13 - Глава 11 02
04:29:41.468                             : 22 Герой Щита v13 - Глава 12 01
04:47:26.428                             : 23 Герой Щита v13 - Глава 12 02
04:56:28.546                             : 24 Герой Щита v13 - Глава 13 01
05:08:37.910                             : 25 Герой Щита v13 - Глава 13 02
05:20:23.633                             : 26 Герой Щита v13 - Глава 14
05:40:45.223                             : 27 Герой Щита v13 - Глава 15
05:58:47.450                             : 28 Герой Щита v13 - Эпилог 01
06:07:22.975                             : 29 Герой Щита v13 - Эпилог 02
06:19:35.421                             : 30 Герой Щита v13 - Послесловие автора
06:25:48.266                             : 31 Герой Щита v13 - Побочная история
Вид битрейта                             : VBR

 
Не забывайте говорить Спасибо. Не уходите с раздачи!   
Торрент: Зарегистрирован [18 янв 2019, 18:54] Скачать торрент
Скачать торрент
[ Размер 37.39 КБ / Просмотров 5 ]
Статус:
Проверен
 
.torrent скачан: 0 раз
Хэш: afad498531abba1b835202a50fa8139595234b21
Размер: 116.77 МБ (122 437 694 байт)
Стать Автором раздачи
 
 
Раздал: 100 ГБ
Скачал: 0 байт
Ратио: Seed.
Сообщения: 195747
Зарегистрирован: 09 апр 2015, 20:00


  • Похожие торренты
    Ответы
    Просмотры
    Последнее сообщение

Вернуться в Аудиокниги (AAC, ALAC)

Ресурс не предоставляет электронные версии произведений, а занимается лишь коллекционированием и каталогизацией ссылок, присылаемых и публикуемых на форуме нашими читателями. Если вы являетесь правообладателем какого-либо представленного материала и не желаете чтобы ссылка на него находилась в нашем каталоге, свяжитесь с нами и мы незамедлительно удалим её. Файлы для обмена на трекере предоставлены пользователями сайта, и администрация не несёт ответственности за их содержание. Просьба не заливать файлы, защищенные авторскими правами, а также файлы нелегального содержания!