Викинги / Vikings (2017) WEB-DL [H.264/1080p-LQ] (сезон 5, серии 1-18 из 20) OmskBird (обновляемая) [AD]

 
 Статистика раздачи 
Размер: 39.61 ГБ   |  Зарегистрирован: 01 дек 2017, 11:20   |   .torrent скачан: 0 раз
Сидеров: 1  [ 0 байт/сек ]     Личеров: 0  [ 0 байт/сек ]  
  

Викинги / Vikings (2017) WEB-DL [H.264/1080p-LQ] (сезон 5, серии 1-18 из 20) OmskBird (обновляемая) [AD]

Сообщение aLaVodka » 20 янв 2019, 14:44

Викинги / Vikings (2017) WEB-DL [H.264/1080p-LQ] (сезон 5, серии 1-18 из 20) OmskBird

Производство: Ирландия, Канада / World 2000 Entertainment, Take 5 Productions, Shaw Media
Жанр: боевик, драма, мелодрама, военный, история

Режиссер: Йохан Ренк, Киаран Доннелли, Кен Джиротти
Актеры: Клайв Стэнден, Гэбриел Бирн, Кэтрин Уинник, Джессалин Гилсиг, Джордж Благден, Густаф Скарсгард, Торбьорн Харр, Владимир Кулих, Донал Лог, Айван Кэй и др.

Описание:
Сериал рассказывает об отряде викингов Рагнара. Он восстал, чтобы стать королём племён викингов. Норвежская легенда гласит, что он был прямым потомком Одина, бога войны и воинов.

https://www.imdb.com/title/tt2306299/?ref_=plg_rt_1
Возраст: 18+ (зрителям, достигшим 18 лет)

Релиз от: OmskBird

Продолжительность: ~00:46:00 серия
Качество видео: WEB-DL
Перевод: Многоголосый закадровый, профессиональный - OmskBird
Субтитры: английские
Реклама: присутствуют голосовые вставки рекламы

Видео: AVC/H.264, 1920x1080 (16:9), ~6011 Kbps
Аудио # 1: AC3, 6 ch, 640 kbps - русский, многоголосый закадровый
Аудио # 2: AC3, 6 ch, 640 kbps - английский
Код: Выделить всё
General
Unique ID                                : 183148138151776946966642653041009528093 (0x89C90C60D4CD6493AED9235EDDCA8D1D)
Complete name                            : G:\Films\Vikings.S05.1080p.WEB-DL.OmskBird\Vikings.S05E01.1080p.WEB-DL.OmskBird.mkv
Format                                   : Matroska
Format version                           : Version 4 / Version 2
File size                                : 2.38 GiB
Duration                                 : 45mn 50s
Overall bit rate mode                    : Variable
Overall bit rate                         : 7 440 Kbps
Encoded date                             : UTC 2017-12-01 06:09:23
Writing application                      : mkvmerge v18.0.0 ('Apricity') 64-bit
Writing library                          : libebml v1.3.5 + libmatroska v1.4.8
Cover                                    : Yes
Attachments                              : small_cover.jpg / small_cover_land.jpg / cover.jpg / cover_land.jpg

Video
ID                                       : 1
Format                                   : AVC
Format/Info                              : Advanced Video Codec
Format profile                           : High@L4
Format settings, CABAC                   : Yes
Format settings, ReFrames                : 4 frames
Codec ID                                 : V_MPEG4/ISO/AVC
Duration                                 : 45mn 50s
Bit rate mode                            : Variable
Bit rate                                 : 6 011 Kbps
Maximum bit rate                         : 15.0 Mbps
Width                                    : 1 920 pixels
Height                                   : 1 080 pixels
Display aspect ratio                     : 16:9
Frame rate mode                          : Constant
Frame rate                               : 23.976 (24000/1001) fps
Color space                              : YUV
Chroma subsampling                       : 4:2:0
Bit depth                                : 8 bits
Scan type                                : Progressive
Bits/(Pixel*Frame)                       : 0.121
Stream size                              : 1.92 GiB (81%)
Language                                 : English
Default                                  : Yes
Forced                                   : No
Color range                              : Limited
Color primaries                          : BT.709
Transfer characteristics                 : BT.709
Matrix coefficients                      : BT.709

Audio #1
ID                                       : 2
Format                                   : AC-3
Format/Info                              : Audio Coding 3
Mode extension                           : CM (complete main)
Format settings, Endianness              : Big
Codec ID                                 : A_AC3
Duration                                 : 45mn 50s
Bit rate mode                            : Constant
Bit rate                                 : 640 Kbps
Channel(s)                               : 6 channels
Channel positions                        : Front: L C R, Side: L R, LFE
Sampling rate                            : 48.0 KHz
Frame rate                               : 31.250 fps (1536 spf)
Compression mode                         : Lossy
Stream size                              : 210 MiB (9%)
Title                                    : OmskBird 5.1
Language                                 : English
Default                                  : Yes
Forced                                   : No

Audio #2
ID                                       : 3
Format                                   : AC-3
Format/Info                              : Audio Coding 3
Mode extension                           : CM (complete main)
Format settings, Endianness              : Big
Codec ID                                 : A_AC3
Duration                                 : 45mn 50s
Bit rate mode                            : Constant
Bit rate                                 : 640 Kbps
Channel(s)                               : 6 channels
Channel positions                        : Front: L C R, Side: L R, LFE
Sampling rate                            : 48.0 KHz
Frame rate                               : 31.250 fps (1536 spf)
Compression mode                         : Lossy
Stream size                              : 210 MiB (9%)
Title                                    : eng
Language                                 : English
Default                                  : No
Forced                                   : No

Text
ID                                       : 4
Format                                   : UTF-8
Codec ID                                 : S_TEXT/UTF8
Codec ID/Info                            : UTF-8 Plain Text
Title                                    : eng
Language                                 : English
Default                                  : No
Forced                                   : No
Релиз-группа: OmskBird
Роли озвучивали: Павел Ярощик, Алексей Гнеушев, Владислав Данилов, Максим Максимов, Алекс Дьяк и Ольга Федорова
Перевод:Татьяна Масаковская
Звукорежиссер: Павел Квентов
Постер: Ксения Просветова
Внимание! Раздача ведётся путём добавления новых серий; при каждом добавлении создаётся новый торрент.
Чтобы начать докачку новой серии, пользователям необходимо сделать следующее:
1. Остановить скачивание;
2. Удалить старый торрент у себя из клиента (старые серии удалять не надо);
3. Скачать новый торрент и запустить его у себя в клиенте вместо старого, при этом указать клиенту путь в старую папку куда и должно происходить скачивание новых серий. Ваш клиент при этом должен произвести хеширование (проверку) старой папки и будет докачивать только те серии, которых у вас ещё нет. Старые серии при этом не удаляются, а продолжают раздаваться! Eсли вы уже удалили старые серии, то предотвратить повторную закачку старых серий можно, отжав галочку в соответствующих местах при запуске нового торрента.

Скриншоты:




Время раздачи: 24/7 (до появления первых 3-5 скачавших)
 
Не забывайте говорить Спасибо. Не уходите с раздачи!   
Торрент: Зарегистрирован [01 дек 2017, 11:20] Зарубежные сериалы Скачать торрент
Скачать торрент
[ Размер 101.18 КБ / Просмотров 3 ]
Статус:
Проверен
 
.torrent скачан: 0 раз
Хэш: 89d86492bdc60d9da75847fcd710c1e2580edf4f
Размер: 39.61 ГБ (42 528 838 992 байт)
Стать Автором раздачи
 
 
Раздал: 100 ГБ
Скачал: 0 байт
Ратио: Seed.
Сообщения: 194800
Зарегистрирован: 09 апр 2015, 20:00


  • Похожие торренты
    Ответы
    Просмотры
    Последнее сообщение

Вернуться в Зарубежные сериалы

Ресурс не предоставляет электронные версии произведений, а занимается лишь коллекционированием и каталогизацией ссылок, присылаемых и публикуемых на форуме нашими читателями. Если вы являетесь правообладателем какого-либо представленного материала и не желаете чтобы ссылка на него находилась в нашем каталоге, свяжитесь с нами и мы незамедлительно удалим её. Файлы для обмена на трекере предоставлены пользователями сайта, и администрация не несёт ответственности за их содержание. Просьба не заливать файлы, защищенные авторскими правами, а также файлы нелегального содержания!