Двойник / По ту сторону / Counterpart [02x01-05 из 10] (2018) WEB-DL 1080p | NewStudio, AlexFilm, Jaskier

 
 Статистика раздачи 
Размер: 13.18 ГБ   |  Зарегистрирован: 14 янв 2019, 15:38   |   .torrent скачан: 0 раз
Сидеров: 1  [ 0 байт/сек ]     Личеров: 0  [ 0 байт/сек ]  
  

Двойник / По ту сторону / Counterpart [02x01-05 из 10] (2018) WEB-DL 1080p | NewStudio, AlexFilm, Jaskier

Сообщение Nasty » 14 янв 2019, 20:28

Информация о сериале
Название: Двойник (По ту сторону)
Оригинальное название: Counterpart
Год выпуска: 2018 (2 сезон)
Жанр: Фантастика, триллер, драма
Режиссер: Алик Сахаров, Мортен Тильдум
В ролях: Дж.К. Симмонс, Гарри Ллойд, Назанин Бониади, Оливия Уильямс, Сара Серайокко, Ульрих Томсен, Бернхард Форхер, Кеннет Чои и др.

О сериале:
Второй сезон сериала возвращает зрителей в мрачноватый мир, где живет двойник главного героя. Говард-Альфа и Говард-Прайм по-прежнему очень сильно отличаются, но у них с каждой встречей становится все больше общего. После нападения боевиков происходят необратимые последствия в отношениях двух миров. Говард Силк попадает в тюрьму, а Другой Силк решает остаться в нашем мире. Как же теперь вернуть порядок в оба мира и возвратить каждого домой?



Страна: США
Студия: Anonymous Content
Продолжительность: ~ 00:50:00 серия
Перевод:
» Профессиональный (многоголосый, закадровый) [NewStudio]
» Профессиональный (многоголосый, закадровый) [AlexFilm]
» Профессиональный (многоголосый, закадровый) [Jaskier]

Файл
Качество: WEBRip 1080p
Формат: Matroska
Видео: 1920x1080 at 23.976 fps, MPEG-4 AVC, ~4800 kbps avg
Аудио#1: Русский (AC3, 6 ch, 384 Кбит/с), (AC3, 6 ch, 448 Кбит/с)
Аудио#2: Английский (E-AC3, 6 ch, 640 Кбит/с)
Субтитры: Russian (Forced, Full), English (SDH)

Примечание: Релиз без рекламы от Wanterlude

-----------------------
Counterpart
-----------------------
»» Основная информация:
Видеоряд: Counterpart.S02.1080p.AMZN.WEB-DL.DDP5.1.H264-SiGMA
Субтитры: Русские (Forced, Full), английские (SDH)

»» Аудиодорожки:
» NewStudio | Многоголосый (закадровый) | AC3, 6 ch, 384 Кбит/с |
» AlexFilm | Многоголосый (закадровый) | AC3, 6 ch, 384-448 Кбит/с |
» Jaskier | Многоголосый (закадровый) | AC3, 6 ch, 384 Кбит/с |
» Оригинальная дорожка | E-AC3, 6 ch, 640 Кбит/с |

»» Дополнительная информация:
▪ Субтитры: Forced от NewStudio, Full (Ru) от FOCS, SDH (En) из релиза SiGMA
Сэмпл

» Сборкой и очисткой от рекламы занимался: Wanterlude
Если взяли дорожку или сам релиз, будьте добры указать автора :)

General
Unique ID : 139310462646596196191302851326241733595 (0x68CE381AB8F11F5DCE16F8AD5280FBDB)
Complete name : D:Релизы ТрекерCounterpart.S02.1080p.WanterludeCounterpart.S02E01.Inside.Out.1080p.Wanterlude.mkv
Format : Matroska
Format version : Version 4
File size : 2.72 GiB
Duration : 58 min 34 s
Overall bit rate : 6 652 kb/s
Movie name : Counterpart | Ep 01 | by Wanterlude
Encoded date : UTC 2018-12-21 12:48:40
Writing application : mkvmerge v29.0.0 ('Like It Or Not') 64-bit
Writing library : libebml v1.3.6 + libmatroska v1.4.9
Video
ID : 1
Format : AVC
Format/Info : Advanced Video Codec
Format profile : High@L4
Format settings : CABAC / 4 Ref Frames
Format settings, CABAC : Yes
Format settings, RefFrames : 4 frames
Codec ID : V_MPEG4/ISO/AVC
Duration : 58 min 34 s
Bit rate : 4 793 kb/s
Width : 1 920 pixels
Height : 1 080 pixels
Display aspect ratio : 16:9
Frame rate mode : Constant
Frame rate : 23.976 (24000/1001) FPS
Color space : YUV
Chroma subsampling : 4:2:0
Bit depth : 8 bits
Scan type : Progressive
Bits/(Pixel*Frame) : 0.096
Stream size : 1.96 GiB (72%)
Title : Counterpart | Ep 01 | by Wanterlude
Default : Yes
Forced : No
Color range : Limited
Color primaries : BT.709
Transfer characteristics : BT.709
Matrix coefficients : BT.709
Audio #1
ID : 2
Format : AC-3
Format/Info : Audio Coding 3
Commercial name : Dolby Digital
Codec ID : A_AC3
Duration : 58 min 34 s
Bit rate mode : Constant
Bit rate : 384 kb/s
Channel(s) : 6 channels
Channel layout : L R C LFE Ls Rs
Sampling rate : 48.0 kHz
Frame rate : 31.250 FPS (1536 SPF)
Bit depth : 16 bits
Compression mode : Lossy
Stream size : 161 MiB (6%)
Title : NewStudio | Многоголосый (закадровый)
Language : Russian
Service kind : Complete Main
Default : Yes
Forced : No
Audio #2
ID : 3
Format : AC-3
Format/Info : Audio Coding 3
Commercial name : Dolby Digital
Codec ID : A_AC3
Duration : 58 min 34 s
Bit rate mode : Constant
Bit rate : 448 kb/s
Channel(s) : 6 channels
Channel layout : L R C LFE Ls Rs
Sampling rate : 48.0 kHz
Frame rate : 31.250 FPS (1536 SPF)
Bit depth : 16 bits
Compression mode : Lossy
Stream size : 188 MiB (7%)
Title : AlexFilm | Многоголосый (закадровый)
Language : Russian
Service kind : Complete Main
Default : No
Forced : No
Audio #3
ID : 4
Format : AC-3
Format/Info : Audio Coding 3
Commercial name : Dolby Digital
Codec ID : A_AC3
Duration : 58 min 34 s
Bit rate mode : Constant
Bit rate : 384 kb/s
Channel(s) : 6 channels
Channel layout : L R C LFE Ls Rs
Sampling rate : 48.0 kHz
Frame rate : 31.250 FPS (1536 SPF)
Bit depth : 16 bits
Compression mode : Lossy
Stream size : 161 MiB (6%)
Title : Jaskier | Многоголосый (закадровый)
Language : Russian
Service kind : Complete Main
Default : No
Forced : No
Audio #4
ID : 5
Format : E-AC-3
Format/Info : Enhanced AC-3
Commercial name : Dolby Digital Plus
Codec ID : A_EAC3
Duration : 58 min 34 s
Bit rate mode : Constant
Bit rate : 640 kb/s
Channel(s) : 6 channels
Channel layout : L R C LFE Ls Rs
Sampling rate : 48.0 kHz
Frame rate : 31.250 FPS (1536 SPF)
Compression mode : Lossy
Stream size : 268 MiB (10%)
Title : Оригинальная дорожка
Language : English
Service kind : Complete Main
Default : No
Forced : No
Text #1
ID : 6
Format : UTF-8
Codec ID : S_TEXT/UTF8
Codec ID/Info : UTF-8 Plain Text
Duration : 56 min 13 s
Bit rate : 81 b/s
Count of elements : 713
Stream size : 33.7 KiB (0%)
Title : Russian (Full)
Language : Russian
Default : No
Forced : No
Text #2
ID : 7
Format : UTF-8
Codec ID : S_TEXT/UTF8
Codec ID/Info : UTF-8 Plain Text
Duration : 56 min 16 s
Bit rate : 55 b/s
Count of elements : 805
Stream size : 22.7 KiB (0%)
Title : English (SDH)
Language : English
Default : No
Forced : No

 
Не забывайте говорить Спасибо. Не уходите с раздачи!   
Торрент: Зарегистрирован [14 янв 2019, 15:38] Скачать торрент
Скачать торрент
[ Размер 34.27 КБ / Просмотров 1 ]
Статус:
Проверен
 
.torrent скачан: 0 раз
Хэш: f05c4cd2ce9438e5a41f9261ae689a67c243c526
Размер: 13.18 ГБ (14 156 013 660 байт)
Стать Автором раздачи
 
 
Раздал: 100 ГБ
Скачал: 0 байт
Ратио: Seed.
Сообщения: 39300
Зарегистрирован: 09 апр 2015, 19:56


  • Похожие торренты
    Ответы
    Просмотры
    Последнее сообщение

Вернуться в Сериалы

Ресурс не предоставляет электронные версии произведений, а занимается лишь коллекционированием и каталогизацией ссылок, присылаемых и публикуемых на форуме нашими читателями. Если вы являетесь правообладателем какого-либо представленного материала и не желаете чтобы ссылка на него находилась в нашем каталоге, свяжитесь с нами и мы незамедлительно удалим её. Файлы для обмена на трекере предоставлены пользователями сайта, и администрация не несёт ответственности за их содержание. Просьба не заливать файлы, защищенные авторскими правами, а также файлы нелегального содержания!
cron