Кадоинг / Kadoyng (Йен Шэнд / Ian Shand) [1972, Великобритания, фантастика, приключения, семейный, DVDRip-AVC] АО (Трамвай-фильм)+Original Eng

 
 Статистика раздачи 
Размер: 972.32 МБ   |  Зарегистрирован: 07 янв 2019, 15:04   |   .torrent скачан: 0 раз
Сидеров: 1  [ 0 байт/сек ]     Личеров: 0  [ 0 байт/сек ]  
  

Кадоинг / Kadoyng (Йен Шэнд / Ian Shand) [1972, Великобритания, фантастика, приключения, семейный, DVDRip-AVC] АО (Трамвай-фильм)+Original Eng

Сообщение VHSnik » 07 янв 2019, 15:05

Страна: Великобритания, Children's Film Foundation (CFF), Shand Pictures Ltd.
Жанр: фантастика, комедия, детский.
Год выпуска: 1972
Продолжительность: 00:57:50

Перевод: Авторский (одноголосый), Трамвай-фильм

Режиссер: Йен Шэнд / Ian Shand
В ролях: Лео Магвайр, Тереза Кодлинг, Адриан Холл, Стефен Боун, Джин Даллас, Джек Хэйг, Фрида Кнорр, Эндрб Маскол, Билл Оуэн, Йен Пигот
Описание: В одном маленьком посёлке, при поддержки местного депутата и министра, идёт освоению бюджета на дорожное строительство. Внезапно, один профессор, начинает собирать митинги протеста, привлекает к участию в них несовершеннолетних, а потом и инопланетного агента!

Качество видео: DVDRip-AVC
Формат: MKV
Видео: MPEG4 Video (H264), 1900 кбит/с, 676x576@962x576, 25 к/с, crf=20
Аудио 1: Русский АО (AC3, 2 ch, 224 Кбит/с)
Аудио 2: Английский (AC3, 2 ch, 224 Кбит/с)

Общее
Полное имя :Kadoyng 1972.x264.DVDRip.Rus.kosmoaelita.mkv
Формат : Matroska
Версия формата : Version 4 / Version 2
Размер файла : 972 Мбайт
Продолжительность : 57 м.
Общий поток : 2351 Кбит/сек
Название фильма : Kadoyng / 1972 / rip from PAL DVD9 by kosmoaelita (2018-12-16), crf=19.99
Дата кодирования : UTC 2019-01-06 00:14:42
Программа кодирования : mkvmerge v6.6.0 ('The Edge Of The In Between') built on Dec 1 2013 17:55:00
Библиотека кодирования : libebml v1.3.0 + libmatroska v1.4.1
Attachments : poster _.jpg / VTS_01_1_003.mkv.encoding.log

Видео
Идентификатор : 1
Формат : AVC
Формат/Информация : Advanced Video Codec
Профиль формата : High@L4.1
Параметр CABAC формата : Да
Параметр ReFrames формата : 8 кадров
Идентификатор кодека : V_MPEG4/ISO/AVC
Продолжительность : 57 м.
Битрейт : 1900 Кбит/сек
Ширина : 676 пикселей
Высота : 576 пикселей
Соотношение сторон : 5:3
Соотношение сторон в оригинале : 5:3
Режим частоты кадров : Постоянный
Частота кадров : 25,000 кадров/сек
Цветовое пространство : YUV
Субдискретизация насыщенности : 4:2:0
Битовая глубина : 8 бит
Тип развёртки : Прогрессивная
Бит/(Пиксели*Кадры) : 0.195
Размер потока : 768 Мбайт (79%)
Заголовок : http://kosmoaelita.com/viewtopic.php?t=2649
Библиотека кодирования : x264 core 130 r2273 b3065e6
Настройки программы : cabac=1 / ref=8 / deblock=1:-2:-2 / analyse=0x3:0x133 / me=umh / subme=11 / psy=1 / psy_rd=0.99:0.14 / mixed_ref=1 / me_range=24 / chroma_me=1 / trellis=2 / 8x8dct=1 / cqm=0 / deadzone=21,11 / fast_pskip=1 / chroma_qp_offset=-3 / threads=6 / lookahead_threads=1 / sliced_threads=0 / nr=0 / decimate=1 / interlaced=0 / bluray_compat=0 / constrained_intra=0 / bframes=8 / b_pyramid=2 / b_adapt=2 / b_bias=0 / direct=3 / weightb=1 / open_gop=0 / weightp=2 / keyint=210 / keyint_min=21 / scenecut=40 / intra_refresh=0 / rc_lookahead=80 / rc=2pass / mbtree=1 / bitrate=1900 / ratetol=1.0 / qcomp=0.65 / qpmin=0 / qpmax=69 / qpstep=4 / cplxblur=20.0 / qblur=0.5 / ip_ratio=1.25 / aq=1:0.90
Default : Да
Forced : Нет
Цветовой диапазон : Limited
Основные цвета : BT.601 PAL
Характеристики трансфера : BT.470 System B, BT.470 System G
Коэффициенты матрицы : BT.601
Statistics Tags Issue : mkvmerge v7.8.0 ('River Man') 32bit built on Mar 27 2015 16:18:02 2018-12-16 22:12:13 / mkvmerge v6.6.0 ('The Edge Of The In Between') built on Dec 1 2013 17:55:00 2019-01-06 00:14:42
FromStats_BitRate : 1899862
FromStats_Duration : 00:57:50.000000000
FromStats_FrameCount : 86750
FromStats_StreamSize : 824065254

Аудио #1
Идентификатор : 2
Формат : AC-3
Формат/Информация : Audio Coding 3
Расширение режима : CM (complete main)
Параметр Endianness формата : Big
Идентификатор кодека : A_AC3
Продолжительность : 57 м.
Вид битрейта : Постоянный
Битрейт : 224 Кбит/сек
Каналы : 2 канала
Расположение каналов : Front: L R
Частота : 48,0 КГц
Частота кадров : 31,250 кадров/сек (1536 spf)
Метод сжатия : С потерями
Размер потока : 92,7 Мбайт (10%)
Заголовок : Русский АО (Трамвай-фильм)
Язык : Russian
Default : Да
Forced : Нет

Аудио #2
Идентификатор : 3
Формат : AC-3
Формат/Информация : Audio Coding 3
Расширение режима : CM (complete main)
Параметр Endianness формата : Big
Идентификатор кодека : A_AC3
Продолжительность : 57 м.
Вид битрейта : Постоянный
Битрейт : 224 Кбит/сек
Каналы : 2 канала
Расположение каналов : Front: L R
Частота : 48,0 КГц
Частота кадров : 31,250 кадров/сек (1536 spf)
Метод сжатия : С потерями
Размер потока : 92,7 Мбайт (10%)
Язык : English
Default : Нет
Forced : Нет
Statistics Tags Issue : mkvmerge v7.8.0 ('River Man') 32bit built on Mar 27 2015 16:18:02 2018-12-16 22:12:13 / mkvmerge v6.6.0 ('The Edge Of The In Between') built on Dec 1 2013 17:55:00 2019-01-06 00:14:42
FromStats_BitRate : 224000
FromStats_Duration : 00:57:49.984000000
FromStats_FrameCount : 108437
FromStats_StreamSize : 97159552

Меню
00:00:00.480 : en:00:00:00.480
00:04:11.640 : en:00:04:11.640
00:09:42.880 : en:00:09:42.880
00:15:43.560 : en:00:15:43.560
00:20:13.440 : en:00:20:13.440
00:27:45.160 : en:00:27:45.160
00:33:10.720 : en:00:33:10.720
00:38:40.520 : en:00:38:40.520
00:46:15.960 : en:00:46:15.960
00:54:44.720 : en:00:54:44.720
00:57:50.960 : en:00:57:50.960








 
Не забывайте говорить Спасибо. Не уходите с раздачи!   
Торрент: Зарегистрирован [07 янв 2019, 15:04] Скачать торрент
Скачать торрент
[ Размер 10.01 КБ / Просмотров 3 ]
Статус:
Проверен
 
.torrent скачан: 0 раз
Хэш: 8818052a232f4a92b230a9f214f6387ad2ff8117
Размер: 972.32 МБ (1 019 550 930 байт)
Стать Автором раздачи
 
 
Раздал: 200 ГБ
Скачал: 0 байт
Ратио: Seed.
Сообщения: 2
Зарегистрирован: 04 янв 2019, 21:10


  • Похожие торренты
    Ответы
    Просмотры
    Последнее сообщение

Вернуться в Зарубежные фильмы до 1990 года

Ресурс не предоставляет электронные версии произведений, а занимается лишь коллекционированием и каталогизацией ссылок, присылаемых и публикуемых на форуме нашими читателями. Если вы являетесь правообладателем какого-либо представленного материала и не желаете чтобы ссылка на него находилась в нашем каталоге, свяжитесь с нами и мы незамедлительно удалим её. Файлы для обмена на трекере предоставлены пользователями сайта, и администрация не несёт ответственности за их содержание. Просьба не заливать файлы, защищенные авторскими правами, а также файлы нелегального содержания!
cron