Отчий дом (1959) DVDRip-AVC от KORSAR

 
 Статистика раздачи 
Размер: 1.62 ГБ   |  Зарегистрирован: 10 дек 2018, 01:16   |   .torrent скачан: 0 раз
Сидеров: 1  [ 0 байт/сек ]     Личеров: 0  [ 0 байт/сек ]  
  

Отчий дом (1959) DVDRip-AVC от KORSAR

Сообщение Nasty » 10 дек 2018, 01:46

Отчий дом

Год выхода: 1959
Страна: СССР
Жанр: Драма, мелодрама
Продолжительность: 01:34:19
Перевод: Не требуется

Режиссер: Лев Кулиджанов
В ролях: Вера Кузнецова, Людмила Марченко, Валентин Зубков, Николай Новлянский, Нонна Мордюкова, Люсьена Овчинникова, Петр Кирюткин, Петр Алейников, Елена Максимова, Евгения Мельникова, Владимир Всеволодов, Татьяна Гурецкая, Георгий Шаповалов, Иван Кузнецов

О фильме: Приемная дочь доктора Скворцова, узнав, что ее мать жива, поехала к ней в деревню на каникулы. Женщина не знала, как приблизить к себе дочь. Встречи в колхозе с интересными людьми заставили Таню о многом подумать и многое пережить. Она даже объяснилась в любви председателю колхоза - доброму и чуткому Сергею Ивановичу, который, впрочем, дал понять ей, что это всего лишь детское увлечение. Уезжая, она знала, что после окончания института вернется.



Кодек: х264
Качество: DVDRip-AVC
Видео: MPEG-4 AVC, 2200 Кбит/с, [email protected], 25 fps
Аудио: Русский, AC-3, 48.0 KHz, 2 ch, 256 Кбит/с
Субтитры: Нет
Главы: Есть



x264 [info]: frame I:750 Avg QP:17.70 size: 65114
x264 [info]: frame P:35375 Avg QP:20.27 size: 25920
x264 [info]: frame B:105343 Avg QP:21.29 size: 5607

Общее
Уникальный идентификатор : 227160538786702621972395574254323948903 (0xAAE587441FD47A15A6D036272714DD67)
Полное имя : H:СССРОтчий дом 1959_DVDRip-AVC_KORSAR.mkv
Формат : Matroska
Версия формата : Version 2
Размер файла : 1,62 Гбайт
Продолжительность : 1 ч. 34 м.
Общий поток : 2458 Кбит/сек
Дата кодирования : UTC 2018-12-05 15:54:51
Программа кодирования : mkvmerge v5.8.0 ('No Sleep / Pillow') built on Sep 2 2012 15:37:04
Библиотека кодирования : libebml v1.2.3 + libmatroska v1.3.0

Видео
Идентификатор : 1
Формат : AVC
Формат/Информация : Advanced Video Codec
Профиль формата : High@L4.1
Настройки формата : CABAC / 16 Ref Frames
Параметр CABAC формата : Да
Параметр RefFrames формата : 16 кадров
Идентификатор кодека : V_MPEG4/ISO/AVC
Продолжительность : 1 ч. 34 м.
Битрейт : 2200 Кбит/сек
Ширина : 688 пикселей
Высота : 556 пикселей
Соотношение сторон : 4:3
Соотношение сторон в оригинале : 4:3
Режим частоты кадров : Постоянный
Частота кадров : 25,000 кадров/сек
Цветовое пространство : YUV
Субдискретизация насыщенности : 4:2:0
Битовая глубина : 8 бит
Тип развёртки : Прогрессивная
Бит/(Пиксели*Кадры) : 0.230
Размер потока : 1,42 Гбайт (88%)
Библиотека кодирования : x264 core 152 r2851kMod ba24899
Настройки программы : cabac=1 / ref=16 / deblock=1:-2:-2 / analyse=0x3:0x133 / me=umh / subme=11 / psy=1 / fade_compensate=0.00 / psy_rd=1.05:0.10 / mixed_ref=1 / me_range=48 / chroma_me=1 / trellis=2 / 8x8dct=1 / cqm=0 / deadzone=21,11 / fast_pskip=0 / chroma_qp_offset=-3 / threads=12 / lookahead_threads=3 / sliced_threads=0 / nr=0 / decimate=0 / interlaced=0 / bluray_compat=0 / constrained_intra=0 / bframes=10 / b_pyramid=2 / b_adapt=2 / b_bias=0 / direct=3 / weightb=1 / open_gop=0 / weightp=2 / keyint=250 / keyint_min=25 / scenecut=40 / intra_refresh=0 / rc_lookahead=40 / rc=2pass / mbtree=0 / bitrate=2200 / ratetol=1.0 / qcomp=0.60 / qpmin=0 / qpmax=39 / qpstep=4 / cplxblur=20.0 / qblur=0.5 / vbv_maxrate=50000 / vbv_bufsize=62500 / nal_hrd=none / filler=0 / ip_ratio=1.25 / pb_ratio=1.30 / aq=1:1.00
Язык : English
Default : Да
Forced : Нет
Цветовой диапазон : Limited
Основные цвета : BT.601 PAL
Характеристики трансфера : BT.470 System B, BT.470 System G
Коэффициенты матрицы : BT.470 System B, BT.470 System G

Аудио
Идентификатор : 2
Формат : AC-3
Формат/Информация : Audio Coding 3
Параметр Endianness формата : Big
Идентификатор кодека : A_AC3
Продолжительность : 1 ч. 34 м.
Вид битрейта : Постоянный
Битрейт : 256 Кбит/сек
Каналы : 2 канала
Расположение каналов : Front: L R
Частота : 48,0 КГц
Частота кадров : 31,250 кадров/сек (1536 SPF)
Битовая глубина : 16 бит
Метод сжатия : С потерями
Размер потока : 173 Мбайт (10%)
Язык : Russian
Default : Да
Forced : Нет

Меню
00:00:00.000 : en:Chapter 1
00:00:14.400 : en:Chapter 2
00:09:38.400 : en:Chapter 3
00:21:24.000 : en:Chapter 4
00:29:03.840 : en:Chapter 5
00:43:19.200 : en:Chapter 6
00:56:17.280 : en:Chapter 7
01:09:46.560 : en:Chapter 8
01:23:52.800 : en:Chapter 9
01:30:33.600 : en:Chapter 10


 
Не забывайте говорить Спасибо. Не уходите с раздачи!   
Торрент: Зарегистрирован [10 дек 2018, 01:16] Скачать торрент
Скачать торрент
[ Размер 17.13 КБ / Просмотров 3 ]
Статус:
Проверен
 
.torrent скачан: 0 раз
Хэш: 0fa44635d91f79c3572bee18318544b6cb774eea
Размер: 1.62 ГБ (1 738 714 399 байт)
Стать Автором раздачи
 
 
Раздал: 100 ГБ
Скачал: 0 байт
Ратио: Seed.
Сообщения: 39821
Зарегистрирован: 09 апр 2015, 19:56


  • Похожие торренты
    Ответы
    Просмотры
    Последнее сообщение

Вернуться в Кино СССР, Советской России, Российской республики (1917-1991)

Ресурс не предоставляет электронные версии произведений, а занимается лишь коллекционированием и каталогизацией ссылок, присылаемых и публикуемых на форуме нашими читателями. Если вы являетесь правообладателем какого-либо представленного материала и не желаете чтобы ссылка на него находилась в нашем каталоге, свяжитесь с нами и мы незамедлительно удалим её. Файлы для обмена на трекере предоставлены пользователями сайта, и администрация не несёт ответственности за их содержание. Просьба не заливать файлы, защищенные авторскими правами, а также файлы нелегального содержания!
cron