Прощание с Петербургом (1971) DVDRip-AVC от KORSAR

 
 Статистика раздачи 
Размер: 1.52 ГБ   |  Зарегистрирован: 09 дек 2018, 03:26   |   .torrent скачан: 0 раз
Сидеров: 1  [ 0 байт/сек ]     Личеров: 0  [ 0 байт/сек ]  
  

Прощание с Петербургом (1971) DVDRip-AVC от KORSAR

Сообщение Nasty » 09 дек 2018, 04:26

Прощание с Петербургом

Страна: СССР
Жанр: Исторический
Год выпуска: 1971
Продолжительность: 01:32:23
Перевод: Не требуется

Режиссер: Ян Фрид
В ролях: Гирт Яковлев, Татьяна Бедова, Татьяна Пилецкая, Василий Меркурьев, Павел Кадочников, Игорь Дмитриев, Сергей Карнович-Валуа, Александр Романцов

Описание: О пребывании в России австрийского композитора Иоганна Штрауса, его концертном сезоне в Павловске летом 1857 года и любви к русской аристократке Ольге Смирницкой, которой он посвятил несколько сочинений.



Кодек: х264
Качество: DVDRip-AVC
Видео: MPEG-4 AVC, 2156 Кбит/с, 700х[email protected], 25 fps,
Аудио: АС3, 2 сh, 192 Кбит/с
Субтитры: Нет
Главы: Есть


x264 [info]: frame I:709 Avg QP:16.03 size: 58870
x264 [info]: frame P:28913 Avg QP:18.30 size: 27769
x264 [info]: frame B:108953 Avg QP:19.58 size: 5957

Общее
Уникальный идентификатор : 226450964188306190142248830045024695124 (0xAA5CDE89906AD909990BD0AF715C3354)
Полное имя : H:СССРПрощание с Петербургом 1971_DVDRip-AVC_KORSAR.mkv
Формат : Matroska
Версия формата : Version 2
Размер файла : 1,52 Гбайт
Продолжительность : 1 ч. 32 м.
Общий поток : 2349 Кбит/сек
Дата кодирования : UTC 2018-12-08 01:58:49
Программа кодирования : mkvmerge v5.8.0 ('No Sleep / Pillow') built on Sep 2 2012 15:37:04
Библиотека кодирования : libebml v1.2.3 + libmatroska v1.3.0

Видео
Идентификатор : 1
Формат : AVC
Формат/Информация : Advanced Video Codec
Профиль формата : High@L4.1
Настройки формата : CABAC / 15 Ref Frames
Параметр CABAC формата : Да
Параметр RefFrames формата : 15 кадров
Идентификатор кодека : V_MPEG4/ISO/AVC
Продолжительность : 1 ч. 32 м.
Битрейт : 2156 Кбит/сек
Ширина : 700 пикселей
Высота : 346 пикселей
Соотношение сторон : 2,2:1
Соотношение сторон в оригинале : 2,2:1
Режим частоты кадров : Постоянный
Частота кадров : 25,000 кадров/сек
Цветовое пространство : YUV
Субдискретизация насыщенности : 4:2:0
Битовая глубина : 8 бит
Тип развёртки : Прогрессивная
Бит/(Пиксели*Кадры) : 0.356
Размер потока : 1,36 Гбайт (90%)
Библиотека кодирования : x264 core 152 r2851kMod ba24899
Настройки программы : cabac=1 / ref=15 / deblock=1:-2:-2 / analyse=0x3:0x133 / me=umh / subme=11 / psy=1 / fade_compensate=0.00 / psy_rd=1.05:0.10 / mixed_ref=1 / me_range=48 / chroma_me=1 / trellis=2 / 8x8dct=1 / cqm=0 / deadzone=21,11 / fast_pskip=0 / chroma_qp_offset=-3 / threads=11 / lookahead_threads=2 / sliced_threads=0 / nr=0 / decimate=0 / interlaced=0 / bluray_compat=0 / constrained_intra=0 / bframes=14 / b_pyramid=2 / b_adapt=2 / b_bias=0 / direct=3 / weightb=1 / open_gop=0 / weightp=2 / keyint=250 / keyint_min=25 / scenecut=40 / intra_refresh=0 / rc_lookahead=40 / rc=2pass / mbtree=0 / bitrate=2156 / ratetol=1.0 / qcomp=0.60 / qpmin=0 / qpmax=39 / qpstep=4 / cplxblur=20.0 / qblur=0.5 / vbv_maxrate=50000 / vbv_bufsize=62500 / nal_hrd=none / filler=0 / ip_ratio=1.25 / pb_ratio=1.30 / aq=1:1.00
Язык : English
Default : Да
Forced : Нет
Цветовой диапазон : Limited
Основные цвета : BT.601 PAL
Характеристики трансфера : BT.470 System B, BT.470 System G
Коэффициенты матрицы : BT.470 System B, BT.470 System G

Аудио
Идентификатор : 2
Формат : AC-3
Формат/Информация : Audio Coding 3
Параметр Endianness формата : Big
Идентификатор кодека : A_AC3
Продолжительность : 1 ч. 32 м.
Вид битрейта : Постоянный
Битрейт : 192 Кбит/сек
Каналы : 2 канала
Расположение каналов : Front: L R
Частота : 48,0 КГц
Частота кадров : 31,250 кадров/сек (1536 SPF)
Битовая глубина : 16 бит
Метод сжатия : С потерями
Размер потока : 127 Мбайт (8%)
Язык : Russian
Default : Да
Forced : Нет

Меню
00:00:00.000 : en:Chapter 1
00:16:35.520 : en:Chapter 2
00:24:48.480 : en:Chapter 3
00:43:04.320 : en:Chapter 4
00:58:06.720 : en:Chapter 5
01:16:27.840 : en:Chapter 6


 
Не забывайте говорить Спасибо. Не уходите с раздачи!   
Торрент: Зарегистрирован [09 дек 2018, 03:26] Скачать торрент
Скачать торрент
[ Размер 16.12 КБ / Просмотров 0 ]
Статус:
Проверен
 
.torrent скачан: 0 раз
Хэш: 9dcf9cdc02d8c4f2a5f3e054a5d421a5a0cf4fe9
Размер: 1.52 ГБ (1 627 890 989 байт)
Стать Автором раздачи
 
 
Раздал: 100 ГБ
Скачал: 0 байт
Ратио: Seed.
Сообщения: 35020
Зарегистрирован: 09 апр 2015, 19:56


  • Похожие торренты
    Ответы
    Просмотры
    Последнее сообщение

Вернуться в Кино СССР, Советской России, Российской республики (1917-1991)

Ресурс не предоставляет электронные версии произведений, а занимается лишь коллекционированием и каталогизацией ссылок, присылаемых и публикуемых на форуме нашими читателями. Если вы являетесь правообладателем какого-либо представленного материала и не желаете чтобы ссылка на него находилась в нашем каталоге, свяжитесь с нами и мы незамедлительно удалим её. Файлы для обмена на трекере предоставлены пользователями сайта, и администрация не несёт ответственности за их содержание. Просьба не заливать файлы, защищенные авторскими правами, а также файлы нелегального содержания!
cron