Караван смерти (1991) DVDRip-AVC от KORSAR

 
 Статистика раздачи 
Размер: 2.41 ГБ   |  Зарегистрирован: 09 дек 2018, 01:14   |   .torrent скачан: 0 раз
Сидеров: 1  [ 0 байт/сек ]     Личеров: 0  [ 0 байт/сек ]  
  

Караван смерти (1991) DVDRip-AVC от KORSAR

Сообщение Nasty » 09 дек 2018, 01:41

Караван смерти

Жанр: Боевик
Год выпуска: 1991
Страна: СССР
Продолжительность: 01:14:40
Режиссёр: Иван Соловов
В ролях: Александр Панкратов-Чёрный, Борис Хмельницкий, Виктор Павлов, Елена Кондулайнен, Джамиля Агамурадова, Владимир Трещалов, Мулькаман Оразов, Юрий Веригин, Владимир Епископосян, Михаил Мамаев, Вячеслав Ильин, Роман Курдюмов, Чары Сейтлиев, Гаджиалий Сеидов, Ширли Моллаев, Сапар Одаев, Мурад Алиев, Татьяна Лордкипанидзе

Описание: Банда афганских моджахедов переходит границу для совершения диверсии. В руках у бандитов оказываются две девушки-археолога, Оксана и Джамиля, которых силой заставляют быть проводниками. Советский пограннаряд, вступивший в неравный бой с вооруженными до зубов головорезами, погибает. Прапорщик Марьин, чудом оставшийся в живых, должен совершить невозможное — предотвратить диверсию любой ценой...



Релиз от:

Качество: DVDRip-AVC
Видео: MPEG-4 AVC, [email protected], 25 fps, 4208 Кбит/с
Аудио: AC3, 5 ch, 320 Кбит/с
Язык: Русский



x264 [info]: frame I:605 Avg QP:19.49 size: 79476
x264 [info]: frame P:23713 Avg QP:21.00 size: 43208
x264 [info]: frame B:87689 Avg QP:22.51 size: 15218
x264 [info]: consecutive B-frames: 1.3% 2.2% 6.9% 17.8% 23.0% 42.1% 5.4% 0.8% 0.4% 0.2%

Общее
Уникальный идентификатор : 216741620460328999346109128846135060487 (0xA30EEAEEA57EC71EA787ACBFA428E807)
Полное имя : D:Караван смерти_1991-DVDRip-AVC_KORSAR.mkv
Формат : Matroska
Версия формата : Version 2
Размер файла : 2,41 Гбайт
Продолжительность : 1 ч. 14 м.
Общий поток : 4620 Кбит/сек
Название фильма : Караван смерти_1991-DVDRip-AVC_KORSAR
Дата кодирования : UTC 2018-12-07 19:08:24
Программа кодирования : mkvmerge v5.8.0 ('No Sleep / Pillow') built on Sep 2 2012 15:37:04
Библиотека кодирования : libebml v1.2.3 + libmatroska v1.3.0

Видео
Идентификатор : 1
Формат : AVC
Формат/Информация : Advanced Video Codec
Профиль формата : High@L4.1
Параметр CABAC формата : Да
Параметр ReFrames формата : 14 кадров
Идентификатор кодека : V_MPEG4/ISO/AVC
Продолжительность : 1 ч. 14 м.
Битрейт : 4208 Кбит/сек
Ширина : 698 пикселей
Высота : 574 пикселя
Соотношение сторон : 1,296
Соотношение сторон в оригинале : 1,297
Режим частоты кадров : Постоянный
Частота кадров : 25,000 кадров/сек
Цветовое пространство : YUV
Субдискретизация насыщенности : 4:2:0
Битовая глубина : 8 бит
Тип развёртки : Прогрессивная
Бит/(Пиксели*Кадры) : 0.420
Размер потока : 2,19 Гбайт (91%)
Библиотека кодирования : x264 core 152 r2851kMod ba24899
Настройки программы : cabac=1 / ref=14 / deblock=1:-2:-1 / analyse=0x3:0x133 / me=umh / subme=10 / psy=1 / fade_compensate=0.00 / psy_rd=1.05:0.10 / mixed_ref=1 / me_range=48 / chroma_me=1 / trellis=2 / 8x8dct=1 / cqm=0 / deadzone=21,11 / fast_pskip=1 / chroma_qp_offset=-3 / threads=12 / lookahead_threads=2 / sliced_threads=0 / nr=0 / decimate=1 / interlaced=0 / bluray_compat=0 / constrained_intra=0 / bframes=9 / b_pyramid=2 / b_adapt=2 / b_bias=0 / direct=1 / weightb=1 / open_gop=0 / weightp=2 / keyint=250 / keyint_min=25 / scenecut=40 / intra_refresh=0 / rc=crf / mbtree=0 / crf=18.6000 / qcomp=0.63 / qpmin=0 / qpmax=45 / qpstep=4 / ip_ratio=1.40 / pb_ratio=1.30 / aq=1:1.00
Язык : English
Default : Да
Forced : Нет
Основные цвета : BT.601 PAL
Характеристики трансфера : BT.470 System B, BT.470 System G
Коэффициенты матрицы : BT.601

Аудио
Идентификатор : 2
Формат : AC-3
Формат/Информация : Audio Coding 3
Расширение режима : CM (complete main)
Параметр Endianness формата : Big
Идентификатор кодека : A_AC3
Продолжительность : 1 ч. 14 м.
Вид битрейта : Постоянный
Битрейт : 320 Кбит/сек
Каналы : 5 каналов
Расположение каналов : Front: L C R, Side: L R
Частота : 48,0 КГц
Битовая глубина : 16 бит
Метод сжатия : С потерями
Размер потока : 171 Мбайт (7%)
Язык : Russian
Default : Да
Forced : Нет
 
Не забывайте говорить Спасибо. Не уходите с раздачи!   
Торрент: Зарегистрирован [09 дек 2018, 01:14] Скачать торрент
Скачать торрент
[ Размер 12.96 КБ / Просмотров 0 ]
Статус:
Проверен
 
.torrent скачан: 0 раз
Хэш: 7ba21e0fb9dd36d51c7dc78694235d774fa39788
Размер: 2.41 ГБ (2 584 141 449 байт)
Стать Автором раздачи
 
 
Раздал: 100 ГБ
Скачал: 0 байт
Ратио: Seed.
Сообщения: 34793
Зарегистрирован: 09 апр 2015, 19:56


  • Похожие торренты
    Ответы
    Просмотры
    Последнее сообщение

Вернуться в Кино СССР, Советской России, Российской республики (1917-1991)

Ресурс не предоставляет электронные версии произведений, а занимается лишь коллекционированием и каталогизацией ссылок, присылаемых и публикуемых на форуме нашими читателями. Если вы являетесь правообладателем какого-либо представленного материала и не желаете чтобы ссылка на него находилась в нашем каталоге, свяжитесь с нами и мы незамедлительно удалим её. Файлы для обмена на трекере предоставлены пользователями сайта, и администрация не несёт ответственности за их содержание. Просьба не заливать файлы, защищенные авторскими правами, а также файлы нелегального содержания!
cron