Облепиховое лето (2018) WEB-DLRip-AVC

 
 Статистика раздачи 
Размер: 1.81 ГБ   |  Зарегистрирован: 08 дек 2018, 23:53   |   .torrent скачан: 0 раз
Сидеров: 1  [ 0 байт/сек ]     Личеров: 0  [ 0 байт/сек ]  
  

Облепиховое лето (2018) WEB-DLRip-AVC

Сообщение Nasty » 09 дек 2018, 00:18

Информация о фильме
Название: Облепиховое лето
Год выхода: 2018
Жанр: биография, драма
Режиссер: Виктор Алферов
В ролях: Андрей Мерзликин, Сергей Агафонов, Сергей Каплунов, Анна Перелешина, Кирилл Рубцов, Полина Чернышова, Александр Усердин, Евгений Сытый, Екатерина Унтилова, Яна Есипович

О фильме: Фильм о жизни и гибели великого советского драматурга Александра Вампилова. Он задыхался в коридорах и кабинетах. Стремился вырваться из замкнутого круга. На родину, к природе, к своим корням. К истории семьи, своего отца, расстрелянного в 38-ом году. И вот в августе 1972-ого, в облепиховое лето, он едет на Байкал, чтобы купить дом на озере. И остаётся там навсегда.



Страна: Россия / Открытая киностудия «Лендок»
Продолжительность: 01:31:11
Перевод: Не требуется

Файл
Качество: WEB-DLRip-AVC
Формат: MKV
Видео: MPEG-4 AVC/H.264, 2600 Кбит/сек, 1024x428
Звук: AC3, 2 ch, 256 Кбит/сек
Субтитры: нет

Общее
Уникальный идентификатор : 55744477287681936992697415561627061863 (0x29EFFEED071915575CC302C3591C4E67)
Полное имя : F:Диск\02. ФИЛЬМЫ СНГОблепиховое лето (2018)Oblepihovoe leto(2018) WEB-DLRip-AVC.mkv
Формат : Matroska
Версия формата : Version 4
Размер файла : 1,81 Гбайт
Продолжительность : 1 ч. 31 м.
Общий поток : 2834 Кбит/сек
Программа кодирования : XviD4PSP 7.0.459 DAILY
Библиотека кодирования : Lavf57.71.100
Авторское право : [#ZsU®]
ErrorDetectionType : Per level 1
ENCODING_INFO : MATROSKA,WEBM > MKV Пользовательский / H264 > X264 ABR 2600kbps HQ / AAC-LC > AC3 CBR 256kbps

Видео
Идентификатор : 1
Формат : AVC
Формат/Информация : Advanced Video Codec
Профиль формата : High@L4.1
Настройки формата : CABAC / 11 Ref Frames
Параметр CABAC формата : Да
Параметр RefFrames формата : 11 кадров
Идентификатор кодека : V_MPEG4/ISO/AVC
Продолжительность : 1 ч. 31 м.
Битрейт : 2600 Кбит/сек
Ширина : 1024 пикселя
Высота : 428 пикселей
Соотношение сторон : 2,40:1
Режим частоты кадров : Постоянный
Частота кадров : 24,000 кадра/сек
Цветовое пространство : YUV
Субдискретизация насыщенности : 4:2:0
Битовая глубина : 8 бит
Тип развёртки : Прогрессивная
Бит/(Пиксели*Кадры) : 0.247
Размер потока : 1,61 Гбайт (89%)
Библиотека кодирования : x264 core 157 r2901M 7d0ff22
Настройки программы : cabac=1 / ref=11 / deblock=1:-3:-3 / analyse=0x3:0x133 / me=umh / subme=11 / psy=1 / psy_rd=1.00:0.20 / mixed_ref=1 / me_range=32 / chroma_me=1 / trellis=2 / 8x8dct=1 / cqm=0 / deadzone=21,11 / fast_pskip=1 / chroma_qp_offset=-3 / threads=12 / lookahead_threads=1 / sliced_threads=0 / nr=0 / decimate=1 / interlaced=0 / bluray_compat=0 / constrained_intra=0 / bframes=11 / b_pyramid=2 / b_adapt=1 / b_bias=11 / direct=1 / weightb=1 / open_gop=0 / weightp=1 / keyint=240 / keyint_min=24 / scenecut=40 / intra_refresh=0 / rc_lookahead=40 / rc=abr / mbtree=1 / bitrate=2600 / ratetol=1.0 / qcomp=0.60 / qpmin=0 / qpmax=69 / qpstep=4 / ip_ratio=1.40 / aq=1:1.00
Язык : Russian
Default : Да
Forced : Нет
Цветовой диапазон : Limited
Основные цвета : BT.709
Характеристики трансфера : BT.709
Коэффициенты матрицы : BT.709

Аудио
Идентификатор : 2
Формат : AC-3
Формат/Информация : Audio Coding 3
Коммерческое название : Dolby Digital
Идентификатор кодека : A_AC3
Продолжительность : 1 ч. 31 м.
Вид битрейта : Постоянный
Битрейт : 256 Кбит/сек
Каналы : 2 канала
Channel layout : L R
Частота : 48,0 КГц
Частота кадров : 31,250 кадров/сек (1536 SPF)
Битовая глубина : 16 бит
Метод сжатия : С потерями
Размер потока : 167 Мбайт (9%)
Язык : Russian
Default : Да
Forced : Нет


СЕМПЛ
Без рекламы
 
Не забывайте говорить Спасибо. Не уходите с раздачи!   
Торрент: Зарегистрирован [08 дек 2018, 23:53] Скачать торрент
Скачать торрент
[ Размер 19.37 КБ / Просмотров 2 ]
Статус:
Проверен
 
.torrent скачан: 0 раз
Хэш: aecc8d9f2253928ccc4673343121f6d86a795e3b
Размер: 1.81 ГБ (1 938 265 743 байт)
Стать Автором раздачи
 
 
Раздал: 100 ГБ
Скачал: 0 байт
Ратио: Seed.
Сообщения: 35020
Зарегистрирован: 09 апр 2015, 19:56


  • Похожие торренты
    Ответы
    Просмотры
    Последнее сообщение

Вернуться в Отечественное кино

Ресурс не предоставляет электронные версии произведений, а занимается лишь коллекционированием и каталогизацией ссылок, присылаемых и публикуемых на форуме нашими читателями. Если вы являетесь правообладателем какого-либо представленного материала и не желаете чтобы ссылка на него находилась в нашем каталоге, свяжитесь с нами и мы незамедлительно удалим её. Файлы для обмена на трекере предоставлены пользователями сайта, и администрация не несёт ответственности за их содержание. Просьба не заливать файлы, защищенные авторскими правами, а также файлы нелегального содержания!
cron