СуперБобровы. Народные мстители (2018) WEB-DLRip-AVC от Generalfilm | iTunes

 
 Статистика раздачи 
Размер: 1.15 ГБ   |  Зарегистрирован: 07 дек 2018, 20:51   |   .torrent скачан: 0 раз
Сидеров: 1  [ 0 байт/сек ]     Личеров: 0  [ 0 байт/сек ]  
  

СуперБобровы. Народные мстители (2018) WEB-DLRip-AVC от Generalfilm | iTunes

Сообщение Nasty » 07 дек 2018, 21:28

Информация о фильме
Оригинальное название: СуперБобровы. Народные мстители
Год выхода: 2018
Страна: Россия
Жанр: Комедия, семейный
Продолжительность: 01:29:12
Перевод: Не требуется iTunes
Субтитры: Отсутствуют

Режиссер: Дмитрий Дьяченко
В ролях: Павел Деревянко, Роман Мадянов, Владимир Толоконников, Оксана Акиньшина, Ирина Пегова, Даниил Вахрушев, Елена Валюшкина, Роман Курцын, Стас Оксаний, Владимир Паршенков






О фильме: Действие картины начинается в Таиланде, где семья Бобровых скрылась от правосудия. Теперь им приходится выступать в цирке-шапито, демонстрируя туристам свои суперспособности. Быть «цирковыми обезьянками» семейству явно не по душе - все хотят домой, на Родину. У Олега и Светы разлад в отношениях: она мечтает о детях, а Олегу совсем не до этого. И вот очередной скандал семьи: Олег уходит, хлопнув дверью. Возвращается, а Бобровых нет. Они уехали. Олегу приходится отправиться в Россию. На родине ему предстоит не только вновь завоевать сердце Светы, но и объединить суперсилы семейства Бобровых в схватке со злодеями планетарного масштаба, сделав из нерадивых родственников настоящих супергероев

Качество: WEB-DLRip-AVC
Формат: MKV
Видео кодек: AVC
Аудио кодек: AC3
Видео: AVC, 1024x428 (2.35:1), 24.000 fps, 1 464 Kbps (0.139 bit/pixel)
Аудио: AC3 48.0 KHz, 6 ch, 384 Kbps
Навигация по главам: есть
Релиз от:








General
Unique ID : 250867200996418581680910368948702569547 (0xBCBB43F44AF1097D8527077AAEB6644B)
Complete name : E:SUPERBOBROVY2_WEB-DLRip-AVC.by.White Smoke.R.G.Generalfilm.mkv
Format : Matroska
Format version : Version 4 / Version 2
File size : 1.15 GiB
Duration : 1 h 29 min
Overall bit rate : 1 851 kb/s
Movie name :
Encoded date : UTC 2018-12-07 16:19:18
Writing application : mkvmerge v6.8.0 ('Theme for Great Cities') 64bit built on Mar 2 2014 21:34:26
Writing library : libebml v1.3.0 + libmatroska v1.4.1
Cover : Yes
Attachments : cover.png

Video
ID : 1
Format : AVC
Format/Info : Advanced Video Codec
Format profile : High@L4.1
Format settings : CABAC / 10 Ref Frames
Format settings, CABAC : Yes
Format settings, ReFrames : 10 frames
Codec ID : V_MPEG4/ISO/AVC
Duration : 1 h 29 min
Bit rate : 1 464 kb/s
Width : 1 024 pixels
Height : 428 pixels
Display aspect ratio : 2.40:1
Frame rate mode : Constant
Frame rate : 24.000 FPS
Color space : YUV
Chroma subsampling : 4:2:0
Bit depth : 8 bits
Scan type : Progressive
Bits/(Pixel*Frame) : 0.139
Stream size : 912 MiB (77%)
Writing library : x264 core 148 r2638 7599210
Encoding settings : cabac=1 / ref=10 / deblock=1:-2:-1 / analyse=0x3:0x113 / me=umh / subme=11 / psy=1 / psy_rd=0.00:0.15 / mixed_ref=1 / me_range=32 / chroma_me=1 / trellis=2 / 8x8dct=1 / cqm=0 / deadzone=21,11 / fast_pskip=0 / chroma_qp_offset=-3 / threads=6 / lookahead_threads=1 / sliced_threads=0 / nr=0 / decimate=0 / interlaced=0 / bluray_compat=0 / constrained_intra=0 / bframes=10 / b_pyramid=2 / b_adapt=2 / b_bias=0 / direct=1 / weightb=1 / open_gop=0 / weightp=2 / keyint=240 / keyint_min=24 / scenecut=40 / intra_refresh=0 / rc_lookahead=40 / rc=2pass / mbtree=1 / bitrate=1464 / ratetol=1.0 / qcomp=0.65 / qpmin=0 / qpmax=69 / qpstep=4 / cplxblur=20.0 / qblur=0.5 / vbv_maxrate=50000 / vbv_bufsize=65500 / nal_hrd=none / filler=0 / ip_ratio=1.40 / aq=1:1.00
Language : English
Default : Yes
Forced : No

Audio
ID : 2
Format : AC-3
Format/Info : Audio Coding 3
Commercial name : Dolby Digital
Codec ID : A_AC3
Duration : 1 h 29 min
Bit rate mode : Constant
Bit rate : 384 kb/s
Channel(s) : 6 channels
Channel layout : L R C LFE Ls Rs
Sampling rate : 48.0 kHz
Frame rate : 31.250 FPS (1536 SPF)
Bit depth : 16 bits
Compression mode : Lossy
Stream size : 245 MiB (21%)
Title : [ORIGINAL] DD 5.1 @ 384 kbps (iTunes)
Language : Russian
Service kind : Complete Main
Default : Yes
Forced : No

Menu
00:00:00.000 : en:Глава 1
00:09:36.833 : en:Глава 2
00:16:27.708 : en:Глава 3
00:20:27.874 : en:Глава 4
00:28:11.707 : en:Глава 5
00:37:13.457 : en:Глава 6
00:45:49.165 : en:Глава 7
00:52:39.290 : en:Глава 8
01:01:36.831 : en:Глава 9
01:07:57.914 : en:Глава 10
01:14:11.122 : en:Глава 11
01:21:00.872 : en:Глава 12
 
Не забывайте говорить Спасибо. Не уходите с раздачи!   
Торрент: Зарегистрирован [07 дек 2018, 20:51] Скачать торрент
Скачать торрент
[ Размер 12.53 КБ / Просмотров 3 ]
Статус:
Проверен
 
.torrent скачан: 0 раз
Хэш: 5f0003fb43e84e5d7af485f82fe929e8b8286b66
Размер: 1.15 ГБ (1 238 317 633 байт)
Стать Автором раздачи
 
 
Раздал: 100 ГБ
Скачал: 0 байт
Ратио: Seed.
Сообщения: 35020
Зарегистрирован: 09 апр 2015, 19:56


  • Похожие торренты
    Ответы
    Просмотры
    Последнее сообщение

Вернуться в Отечественное кино

Ресурс не предоставляет электронные версии произведений, а занимается лишь коллекционированием и каталогизацией ссылок, присылаемых и публикуемых на форуме нашими читателями. Если вы являетесь правообладателем какого-либо представленного материала и не желаете чтобы ссылка на него находилась в нашем каталоге, свяжитесь с нами и мы незамедлительно удалим её. Файлы для обмена на трекере предоставлены пользователями сайта, и администрация не несёт ответственности за их содержание. Просьба не заливать файлы, защищенные авторскими правами, а также файлы нелегального содержания!
cron