В поисках Немо / Finding Nemo (2003) BDRip-HEVC 1080p от Kino-mix | Лицензия

 
 Статистика раздачи 
Размер: 7.19 ГБ   |  Зарегистрирован: 07 дек 2018, 09:12   |   .torrent скачан: 0 раз
Сидеров: 1  [ 0 байт/сек ]     Личеров: 0  [ 0 байт/сек ]  
  

В поисках Немо / Finding Nemo (2003) BDRip-HEVC 1080p от Kino-mix | Лицензия

Сообщение explosiveone » 07 дек 2018, 09:57

Год выхода: 2003
Страна: США / Pixar Animation Studios,Walt Disney Pictures
Жанр: Мультфильм, фэнтези, комедия, приключения, семейный
Продолжительность: 01:40:54
Перевод: Дублированный (Лицензия)

Режиссер: Эндрю Стэнтон, Ли Анкрич

Описание: Среди прекрасных тропических морских стихий, в районе Большого барьерного рифа в уединении живет рыба-клоун по имени Марлин. Он растит своего единственного сыночка Немо. Океан и существующие в нем опасности очень страшат Марлина, и он как может ограждает сына от них, но молодой Немо, страдающий излишним любопытством, очень хочет разузнать побольше о таинственном рифе, рядом с которым они живут.

Качество: BDRip 1080p
Видео: HEVC/H.265, 1920x1080, ~8913 Kbps
Аудио 1: AC3, 6 ch, 640 Kbps - Дублированный
Аудио 2: AC3, 6 ch, 640 Kbps - Английский
Субтитры: Русские, английские



Автор рипа: Mr. Fox

Общее
Уникальный идентификатор : 248039212575699410818704307506258589495 (0xBA9A9D5C3451AF191953DE8C1FF73737)
Полное имя : F:РАЗДАЧИВ поисках Немо. 2003. 1080p. HEVC. 10 bit.mkv
Формат : Matroska
Версия формата : Version 4 / Version 2
Размер файла : 7,19 Гбайт
Продолжительность : 1 ч. 40 м.
Общий поток : 10,2 Мбит/сек
Название фильма : Рип от Mr. Fox, специально для сайта Kino-mix
Дата кодирования : UTC 2018-12-07 05:03:54
Программа кодирования : mkvmerge v28.2.0 ('The Awakening') 64-bit
Библиотека кодирования : libebml v1.3.6 + libmatroska v1.4.9
Обложка : Yes
Attachments : cover.jpg

Видео
Идентификатор : 1
Формат : HEVC
Формат/Информация : High Efficiency Video Coding
Профиль формата : Main 10@L4.1@High
Идентификатор кодека : V_MPEGH/ISO/HEVC
Продолжительность : 1 ч. 40 м.
Битрейт : 8913 Кбит/сек
Ширина : 1920 пикселей
Высота : 1080 пикселей
Соотношение сторон : 16:9
Режим частоты кадров : Постоянный
Частота кадров : 23,976 (24000/1001) кадра/сек
Цветовое пространство : YUV
Субдискретизация насыщенности : 4:2:0
Битовая глубина : 10 бит
Бит/(Пиксели*Кадры) : 0.179
Размер потока : 6,28 Гбайт (87%)
Библиотека кодирования : x265 2.8+74-fd517ae68f93:[Windows][GCC 7.3.0][64 bit] 10bit
Настройки программы : cpuid=1111039 / frame-threads=13 / numa-pools=12 / wpp / no-pmode / no-pme / no-psnr / no-ssim / log-level=3 / input-csp=1 / input-res=1920x1080 / interlace=0 / total-frames=0 / level-idc=41 / high-tier=1 / uhd-bd=0 / ref=5 / allow-non-conformance / no-repeat-headers / annexb / no-aud / no-hrd / info / hash=0 / no-temporal-layers / open-gop / min-keyint=24 / keyint=240 / gop-lookahead=0 / bframes=8 / b-adapt=2 / b-pyramid / bframe-bias=0 / rc-lookahead=60 / lookahead-slices=4 / scenecut=40 / radl=0 / no-intra-refresh / ctu=32 / min-cu-size=8 / rect / amp / max-tu-size=32 / tu-inter-depth=4 / tu-intra-depth=4 / limit-tu=1 / rdoq-level=1 / dynamic-rd=0.00 / no-ssim-rd / signhide / no-tskip / nr-intra=0 / nr-inter=0 / no-constrained-intra / no-strong-intra-smoothing / max-merge=4 / limit-refs=2 / limit-modes / me=3 / subme=7 / merange=57 / temporal-mvp / weightp / weightb / no-analyze-src-pics / deblock=-3:-3 / no-sao / no-sao-non-deblock / rd=6 / no-early-skip / no-rskip / no-fast-intra / no-tskip-fast / no-cu-lossless / no-b-intra / no-splitrd-skip / rdpenalty=0 / psy-rd=1.00 / psy-rdoq=1.00 / no-rd-refine / no-lossless / cbqpoffs=0 / crqpoffs=0 / rc=crf / crf=19.5 / qcomp=0.60 / qpstep=1 / stats-write=0 / stats-read=0 / vbv-maxrate=50000 / vbv-bufsize=50000 / vbv-init=0.9 / crf-max=30.0 / crf-min=0.0 / ipratio=1.40 / pbratio=1.30 / aq-mode=1 / aq-strength=0.90 / no-cutree / zone-count=0 / no-strict-cbr / qg-size=32 / no-rc-grain / qpmax=69 / qpmin=0 / no-const-vbv / sar=1 / overscan=0 / videoformat=5 / range=0 / colorprim=2 / transfer=2 / colormatrix=2 / chromaloc=0 / display-window=0 / max-cll=0,0 / min-luma=0 / max-luma=1023 / log2-max-poc-lsb=8 / vui-timing-info / vui-hrd-info / slices=1 / no-opt-qp-pps / no-opt-ref-list-length-pps / no-multi-pass-opt-rps / scenecut-bias=0.05 / no-opt-cu-delta-qp / no-aq-motion / no-hdr / no-hdr-opt / no-dhdr10-opt / no-idr-recovery-sei / analysis-reuse-level=5 / scale-factor=0 / refine-intra=0 / refine-inter=0 / refine-mv=0 / no-limit-sao / ctu-info=0 / no-lowpass-dct / refine-mv-type=0 / copy-pic=1 / max-ausize-factor=1.0 / no-dynamic-refine / no-single-sei
Default : Да
Forced : Нет

Аудио #1
Идентификатор : 2
Формат : AC-3
Формат/Информация : Audio Coding 3
Идентификатор кодека : A_AC3
Продолжительность : 1 ч. 40 м.
Вид битрейта : Постоянный
Битрейт : 640 Кбит/сек
Каналы : 6 каналов
Расположение каналов : Front: L C R, Side: L R, LFE
Частота : 48,0 КГц
Частота кадров : 31,250 кадров/сек (1536 SPF)
Битовая глубина : 16 бит
Метод сжатия : С потерями
Размер потока : 462 Мбайт (6%)
Заголовок : Русский, 48.0 KHz, AC3, 6 ch, 640 kbps - Дубляж
Язык : Russian
ServiceKind/ : Complete Main
Default : Да
Forced : Нет

Аудио #2
Идентификатор : 3
Формат : AC-3
Формат/Информация : Audio Coding 3
Идентификатор кодека : A_AC3
Продолжительность : 1 ч. 40 м.
Вид битрейта : Постоянный
Битрейт : 640 Кбит/сек
Каналы : 6 каналов
Расположение каналов : Front: L C R, Side: L R, LFE
Частота : 48,0 КГц
Частота кадров : 31,250 кадров/сек (1536 SPF)
Битовая глубина : 16 бит
Метод сжатия : С потерями
Размер потока : 462 Мбайт (6%)
Заголовок : English, 48.0 KHz, AC3, 6 ch, 640 kbps
Язык : English
ServiceKind/ : Complete Main
Default : Нет
Forced : Нет

Текст #1
Идентификатор : 4
Формат : UTF-8
Идентификатор кодека : S_TEXT/UTF8
Идентификатор кодека/Информация : UTF-8 Plain Text
Продолжительность : 1 ч. 32 м.
Битрейт : 104 бит/сек
ElementCount : 1327
Размер потока : 70,7 Кбайт (0%)
Язык : Russian
Default : Нет
Forced : Нет

Текст #2
Идентификатор : 5
Формат : UTF-8
Идентификатор кодека : S_TEXT/UTF8
Идентификатор кодека/Информация : UTF-8 Plain Text
Продолжительность : 1 ч. 32 м.
Битрейт : 70 бит/сек
ElementCount : 1493
Размер потока : 47,8 Кбайт (0%)
Язык : English
Default : Нет
Forced : Нет

Меню
00:00:00.000 : :01. New Parents
00:04:18.717 : :02. Main Titles
00:05:35.669 : :03. First Day of School
00:11:17.802 : :04. Field Trip
00:12:16.277 : :05. The Drop Off
00:14:08.848 : :06. Nemo Lost
00:16:29.280 : :07. Meeting Dory
00:18:50.338 : :08. Sharks
00:25:31.989 : :09. The Tank Gang
00:30:54.227 : :10. The Abyss
00:33:01.646 : :11. Anglerfish
00:36:11.836 : :12. Nemo's Initiation
00:40:19.167 : :13. Fish Impressions
00:44:58.279 : :14. Jellyfish
00:48:12.389 : :15. The Filter
00:51:28.419 : :16. Sea Turtles
00:56:07.030 : :17. News Travels
01:00:55.902 : :18. Off Ramp
01:05:20.667 : :19. Dory Speaks Whale
01:07:02.101 : :20. Algae
01:08:30.148 : :21. Inside the Whale
01:13:19.437 : :22. Sydney Harbour
01:14:15.201 : :23. The Aquascum
01:16:00.097 : :24. Pelicans
01:18:41.300 : :25. Darla!
01:21:57.621 : :26. Goodbye Dory
01:24:29.481 : :27. Nemo and Dory
01:26:54.334 : :28. Fishing Net
01:29:26.611 : :29. Reunion
01:30:51.363 : :30. Back on the Reef
01:32:42.974 : :31. Tank Escape
01:33:24.265 : :32. End Credits

 
Не забывайте говорить Спасибо. Не уходите с раздачи!   
Торрент: Зарегистрирован [07 дек 2018, 09:12] Скачать торрент
Скачать торрент
[ Размер 36.85 КБ / Просмотров 1 ]
Статус:
Проверен
 
.torrent скачан: 0 раз
Хэш: 113208ea566a14864efddef224e0df29e248b3d1
Размер: 7.19 ГБ (7 716 331 431 байт)
Стать Автором раздачи
 
 
Раздал: 100 ГБ
Скачал: 0 байт
Ратио: Seed.
Сообщения: 104473
Зарегистрирован: 09 апр 2015, 22:31


  • Похожие торренты
    Ответы
    Просмотры
    Последнее сообщение

Вернуться в Мультфильмы и мультсериалы

Ресурс не предоставляет электронные версии произведений, а занимается лишь коллекционированием и каталогизацией ссылок, присылаемых и публикуемых на форуме нашими читателями. Если вы являетесь правообладателем какого-либо представленного материала и не желаете чтобы ссылка на него находилась в нашем каталоге, свяжитесь с нами и мы незамедлительно удалим её. Файлы для обмена на трекере предоставлены пользователями сайта, и администрация не несёт ответственности за их содержание. Просьба не заливать файлы, защищенные авторскими правами, а также файлы нелегального содержания!
cron