СуперБобровы. Народные мстители (2017) WEB-DLRip от GeneralFilm | iTunes

 
 Статистика раздачи 
Размер: 744.62 МБ   |  Зарегистрирован: 06 дек 2018, 20:46   |   .torrent скачан: 0 раз
Сидеров: 1  [ 0 байт/сек ]     Личеров: 0  [ 0 байт/сек ]  
  

СуперБобровы. Народные мстители (2017) WEB-DLRip от GeneralFilm | iTunes

Сообщение Nasty » 06 дек 2018, 21:23

Год выпуска: 2017
Жанр: Комедия, семейный
Выпущено: Россия, KeyStone Production, Yellow, Black and White
Режиссер: Дмитрий Дьяченко
В ролях: Павел Деревянко, Роман Мадянов, Владимир Толоконников, Оксана Акиньшина, Ирина Пегова, Даниил Вахрушев, Елена Валюшкина, Роман Курцын, Стас Оксаний, Владимир Паршенков

О фильме: Действие картины начинается в Таиланде, где семья Бобровых скрылась от правосудия. Теперь им приходится выступать в цирке-шапито, демонстрируя туристам свои суперспособности. Быть «цирковыми обезьянками» семейству явно не по душе - все хотят домой, на Родину. У Олега и Светы разлад в отношениях: она мечтает о детях, а Олегу совсем не до этого. И вот очередной скандал семьи: Олег уходит, хлопнув дверью. Возвращается, а Бобровых нет. Они уехали. Олегу приходится отправиться в Россию. На родине ему предстоит не только вновь завоевать сердце Светы, но и объединить суперсилы семейства Бобровых в схватке со злодеями планетарного масштаба, сделав из нерадивых родственников настоящих супергероев.



Качество: WEB-DLRip
Видео: XviD build 73, 688x288 (2.40:1), 24.000 fps, 1301 Kbps (~ 0.217 bit/pixel)
Аудио: 48.0 kHz, MP3, 2/0 ch, 128 kbps
Продолжительность: 01:29:12
Перевод: Не требуется | iTunes
Cубтитры: нет

General
Complete name : D:RazdachiSuperbobrovy.2018.XviD.745Mb.WEB-DLRip.GeneralFilm.avi
Format : AVI
Format/Info : Audio Video Interleave
File size : 745 MiB
Duration : 1 h 29 min
Overall bit rate : 1 167 kb/s
Writing application : VirtualDubMod 1.5.10.3 | www.virtualdub-fr.org || (build 2550/release)
Writing library : VirtualDubMod build 2550/release

Video
ID : 0
Format : MPEG-4 Visual
Format profile : Advanced Simple@L5
Format settings, BVOP : 1
Format settings, QPel : No
Format settings, GMC : No warppoints
Format settings, Matrix : Custom
Codec ID : XVID
Codec ID/Hint : XviD
Duration : 1 h 29 min
Bit rate : 1 030 kb/s
Width : 688 pixels
Height : 288 pixels
Display aspect ratio : 2.40:1
Frame rate : 24.000 FPS
Color space : YUV
Chroma subsampling : 4:2:0
Bit depth : 8 bits
Scan type : Progressive
Compression mode : Lossy
Bits/(Pixel*Frame) : 0.217
Stream size : 657 MiB (88%)
Writing library : XviD 73

Audio
ID : 1
Format : MPEG Audio
Format version : Version 1
Format profile : Layer 3
Codec ID : 55
Codec ID/Hint : MP3
Duration : 1 h 29 min
Bit rate mode : Constant
Bit rate : 128 kb/s
Channel(s) : 2 channels
Sampling rate : 48.0 kHz
Compression mode : Lossy
Stream size : 81.7 MiB (11%)
Alignment : Aligned on interleaves
Interleave, duration : 42 ms (1.00 video frame)
Interleave, preload duratio : 504 ms
Writing library : LAME3.99r
Encoding settings : -m s -V 4 -q 2 -lowpass 17 -b 128


Релиз от:
 
Не забывайте говорить Спасибо. Не уходите с раздачи!   
Торрент: Зарегистрирован [06 дек 2018, 20:46] Скачать торрент
Скачать торрент
[ Размер 15.49 КБ / Просмотров 2 ]
Статус:
Проверен
 
.torrent скачан: 0 раз
Хэш: 51f0bf45cd3362939f72038c33bb943323eb75e1
Размер: 744.62 МБ (780 793 856 байт)
Стать Автором раздачи
 
 
Раздал: 100 ГБ
Скачал: 0 байт
Ратио: Seed.
Сообщения: 35020
Зарегистрирован: 09 апр 2015, 19:56


  • Похожие торренты
    Ответы
    Просмотры
    Последнее сообщение

Вернуться в Отечественное кино

Ресурс не предоставляет электронные версии произведений, а занимается лишь коллекционированием и каталогизацией ссылок, присылаемых и публикуемых на форуме нашими читателями. Если вы являетесь правообладателем какого-либо представленного материала и не желаете чтобы ссылка на него находилась в нашем каталоге, свяжитесь с нами и мы незамедлительно удалим её. Файлы для обмена на трекере предоставлены пользователями сайта, и администрация не несёт ответственности за их содержание. Просьба не заливать файлы, защищенные авторскими правами, а также файлы нелегального содержания!
cron