Подбросы (2018) WEB-DLRip-AVC

 
 Статистика раздачи 
Размер: 1.58 ГБ   |  Зарегистрирован: 06 дек 2018, 20:28   |   .torrent скачан: 0 раз
Сидеров: 1  [ 0 байт/сек ]     Личеров: 0  [ 0 байт/сек ]  
  

Подбросы (2018) WEB-DLRip-AVC

Сообщение Nasty » 06 дек 2018, 21:23

Информация о фильме
Название: Подбросы
Год выхода: 2018
Жанр: драма
Режиссер: Иван И. Твердовский
В ролях: Денис Власенко, Анна Слю, Данил Стеклов, Павел Чинарёв, Вильма Кутавичюте, Александра Урсуляк, Максим Виторган, Александр Золотовицкий, Данила Ариков, Елена Коробанова

О фильме: Брошенный в младенчестве, Денис вырос и превратился в юношу с уникальной способностью не чувствовать боли. Внезапно жизнь молодого человека кардинально меняется: его находит мать и увозит жить в Москву. Она окружает Дениса заботой, вниманием, играет роль задушевной подружки и вводит юношу в загадочную среду столичных мошенников и коррупционеров. Ради материнской любви доверчивый паренек готов стать участником рискованной авантюры «сильных мира сего».



Страна: Россия, Литва, Ирландия, Франция / Arizona Productions, F&ME, «Компания Новые люди» при поддержке Министерства культуры РФ, Film and Music Entertainment (IRE)
Продолжительность: 01:23:09
Перевод: Не требуется (русский)

Файл
Качество: WEB-DLRip-AVC
Формат: MKV
Видео: MPEG-4 AVC, 2470 Кбит/сек, 1024x428
Звук: AC3, 2 ch, 192 Кбит/сек
Субтитры: нет

Общее
Уникальный идентификатор : 229209083514884660208110957588406210496 (0xAC701051B3F05EF06B3985B733D60FC0)
Полное имя : F:Диск2. ФИЛЬМЫ СНГПодбросы (2018)Podbrosy 2018 WEB-DLRip-AVC.mkv
Формат : Matroska
Версия формата : Version 4
Размер файла : 1,58 Гбайт
Продолжительность : 1 ч. 23 м.
Общий поток : 2716 Кбит/сек
Программа кодирования : XviD4PSP 7.0.459 DAILY
Библиотека кодирования : Lavf57.71.100
Авторское право : [#ZsU®]
ErrorDetectionType : Per level 1
Attachments : poster.jpg
ENCODING_INFO : MATROSKA,WEBM > MKV Пользовательский / H264 > X264 ABR 2600kbps HQ / AC3 > AC3 CBR 192kbps
Язык : und

Видео
Идентификатор : 1
Формат : AVC
Формат/Информация : Advanced Video Codec
Профиль формата : High@L4.1
Настройки формата : CABAC / 10 Ref Frames
Параметр CABAC формата : Да
Параметр RefFrames формата : 10 кадров
Идентификатор кодека : V_MPEG4/ISO/AVC
Продолжительность : 1 ч. 23 м.
Битрейт : 2470 Кбит/сек
Номинальный битрейт : 2600 Кбит/сек
Ширина : 1024 пикселя
Высота : 428 пикселей
Соотношение сторон : 2,40:1
Режим частоты кадров : Постоянный
Частота кадров : 25,000 кадров/сек
Цветовое пространство : YUV
Субдискретизация насыщенности : 4:2:0
Битовая глубина : 8 бит
Тип развёртки : Прогрессивная
Бит/(Пиксели*Кадры) : 0.225
Размер потока : 1,43 Гбайт (91%)
Библиотека кодирования : x264 core 157 r2901M 7d0ff22
Настройки программы : cabac=1 / ref=11 / deblock=1:-3:-3 / analyse=0x3:0x133 / me=umh / subme=11 / psy=1 / psy_rd=1.00:0.20 / mixed_ref=1 / me_range=32 / chroma_me=1 / trellis=2 / 8x8dct=1 / cqm=0 / deadzone=21,11 / fast_pskip=1 / chroma_qp_offset=-3 / threads=12 / lookahead_threads=1 / sliced_threads=0 / nr=0 / decimate=1 / interlaced=0 / bluray_compat=0 / constrained_intra=0 / bframes=11 / b_pyramid=1 / b_adapt=1 / b_bias=11 / direct=1 / weightb=1 / open_gop=0 / weightp=1 / keyint=250 / keyint_min=25 / scenecut=40 / intra_refresh=0 / rc_lookahead=40 / rc=abr / mbtree=1 / bitrate=2600 / ratetol=1.0 / qcomp=0.60 / qpmin=0 / qpmax=69 / qpstep=4 / ip_ratio=1.40 / aq=1:1.00
Default : Да
Forced : Нет
Цветовой диапазон : Limited
Основные цвета : BT.709
Характеристики трансфера : BT.709
Коэффициенты матрицы : BT.709

Аудио
Идентификатор : 2
Формат : AC-3
Формат/Информация : Audio Coding 3
Коммерческое название : Dolby Digital
Идентификатор кодека : A_AC3
Продолжительность : 1 ч. 23 м.
Вид битрейта : Постоянный
Битрейт : 192 Кбит/сек
Каналы : 2 канала
Channel layout : L R
Частота : 48,0 КГц
Частота кадров : 31,250 кадров/сек (1536 SPF)
Битовая глубина : 16 бит
Метод сжатия : С потерями
Размер потока : 114 Мбайт (7%)
Default : Да
Forced : Нет


СЕМПЛ
Без рекламы
 
Не забывайте говорить Спасибо. Не уходите с раздачи!   
Торрент: Зарегистрирован [06 дек 2018, 20:28] Скачать торрент
Скачать торрент
[ Размер 16.78 КБ / Просмотров 1 ]
Статус:
Проверен
 
.torrent скачан: 0 раз
Хэш: 9e49480bb90b63788bd9199e63ab9509f82bf358
Размер: 1.58 ГБ (1 693 773 897 байт)
Стать Автором раздачи
 
 
Раздал: 100 ГБ
Скачал: 0 байт
Ратио: Seed.
Сообщения: 34788
Зарегистрирован: 09 апр 2015, 19:56


  • Похожие торренты
    Ответы
    Просмотры
    Последнее сообщение

Вернуться в Отечественное кино

Ресурс не предоставляет электронные версии произведений, а занимается лишь коллекционированием и каталогизацией ссылок, присылаемых и публикуемых на форуме нашими читателями. Если вы являетесь правообладателем какого-либо представленного материала и не желаете чтобы ссылка на него находилась в нашем каталоге, свяжитесь с нами и мы незамедлительно удалим её. Файлы для обмена на трекере предоставлены пользователями сайта, и администрация не несёт ответственности за их содержание. Просьба не заливать файлы, защищенные авторскими правами, а также файлы нелегального содержания!
cron