Возмездие / Edge of Darkness (2010) HDRip-AVC от ExKinoRay | D

 
 Статистика раздачи 
Размер: 746.2 МБ   |  Зарегистрирован: 30 ноя 2018, 08:41   |   .torrent скачан: 0 раз
Сидеров: 1  [ 0 байт/сек ]     Личеров: 0  [ 0 байт/сек ]  
  

Возмездие / Edge of Darkness (2010) HDRip-AVC от ExKinoRay | D

Сообщение graf_t » 30 ноя 2018, 09:08

Информация о фильме
Название: Возмездие / На пороге тьмы
Оригинальное название: Edge of Darkness
Год выхода: 2010
Жанр: Триллер, драма, детектив
Режиссер: Мартин Кэмпбелл / Martin Campbell
В ролях: Мэл Гибсон, Рэй Уинстон, Дэнни Хьюстон, Бояна Новакович, Шоун Робертс, Дэвид Аарон Бэйкер, Джей О. Сэндерс, Дэнис О`Харе, Дамиан Янг, Катерина Скорсоне

О фильме :
Полицейский детектив Томас Крейвен после того, как его единственную дочь Эмму застрелили, приступает к собственному расследованию, в ходе которого постарается узнать причины ее гибели. Во время следствия он обнаружил, что ее смерть была заранее предопределена и подстроена коррумпированными системами власти. Эмма узнала о том, что в ведомстве, в котором была ее работа, подделывают разнообразные виды ядерного оружия. Поскольку она старалась остановить это всеми возможными способами, ее решили убрать. Отец решает отомстить за родную кровинку, однако, он и не представляет, на какую смертельную опасность может натолкнуться.



Страна: США, Великобритания
Студия: Warner Bros. Pictures, GK Films, BBC Films
Продолжительность: 01:56:49
Перевод: Профессиональный (полное дублирование)

Файл
Формат: MKV
Качество: HDRip-AVC
Видео: MPEG-4 AVC, 768x320, - 815 Кбит/с
Аудио: AAC-HE, 2 ch, - 76 Кбит/с
Субтитры: Русские

Общее
Уникальный идентификатор : 207120663206801185188384616977651427568 (0x9BD1FD1DE06F254DBE8E07DA778F68F0)
Полное имя : D:MOVIESEdge of Darkness.2010.HDRip-AVC.ExKinoRay.mkv
Формат : Matroska
Версия формата : Version 4 / Version 2
Размер файла : 746 Мбайт
Продолжительность : 1 ч. 57 м.
Общий поток : 892 Кбит/сек
Дата кодирования : UTC 2018-11-30 05:35:21
Программа кодирования : mkvmerge v15.0.0 ('Duel with the Devil') 64-bit
Библиотека кодирования : libebml v1.3.5 + libmatroska v1.4.5
Обложка : Yes
Attachments : cover.png

Видео
Идентификатор : 1
Формат : AVC
Формат/Информация : Advanced Video Codec
Профиль формата : High@L4.1
Параметр CABAC формата : Да
Параметр RefFrames формата : 12 кадров
Идентификатор кодека : V_MPEG4/ISO/AVC
Продолжительность : 1 ч. 56 м.
Битрейт : 815 Кбит/сек
Ширина : 768 пикселей
Высота : 320 пикселей
Соотношение сторон : 2,40:1
Режим частоты кадров : Постоянный
Частота кадров : 23,976 (24000/1001) кадра/сек
Цветовое пространство : YUV
Субдискретизация насыщенности : 4:2:0
Битовая глубина : 8 бит
Тип развёртки : Прогрессивная
Бит/(Пиксели*Кадры) : 0.138
Размер потока : 680 Мбайт (91%)
Библиотека кодирования : x264 core 152 r2851kMod ba24899
Настройки программы : cabac=1 / ref=12 / deblock=1:-3:-3 / analyse=0x3:0x133 / me=umh / subme=10 / psy=1 / fade_compensate=0.00 / psy_rd=1.00:0.16 / mixed_ref=1 / me_range=32 / chroma_me=1 / trellis=2 / 8x8dct=1 / cqm=0 / deadzone=21,11 / fast_pskip=0 / chroma_qp_offset=-3 / threads=6 / lookahead_threads=1 / sliced_threads=0 / nr=0 / decimate=0 / interlaced=0 / bluray_compat=0 / constrained_intra=0 / bframes=11 / b_pyramid=2 / b_adapt=2 / b_bias=0 / direct=3 / weightb=1 / open_gop=0 / weightp=2 / keyint=240 / keyint_min=23 / scenecut=40 / intra_refresh=0 / rc_lookahead=40 / rc=2pass / mbtree=1 / bitrate=815 / ratetol=1.0 / qcomp=0.60 / qpmin=0 / qpmax=69 / qpstep=4 / cplxblur=20.0 / qblur=0.5 / ip_ratio=1.40 / aq=3:1.00
Default : Да
Forced : Нет

Аудио
Идентификатор : 2
Формат : AAC
Формат/Информация : Advanced Audio Codec
Профиль формата : HE-AAC / LC
Идентификатор кодека : A_AAC
Продолжительность : 1 ч. 56 м.
Битрейт : 76,0 Кбит/сек
Каналы : 2 канала
Расположение каналов : Front: L R
Частота : 48,0 КГц / 24,0 КГц
Частота кадров : 23,438 кадра/сек (1024 SPF)
Метод сжатия : С потерями
Задержка видео : 31 мс.
Размер потока : 63,6 Мбайт (9%)
Default : Да
Forced : Нет

Текст
Идентификатор : 3
Формат : UTF-8
Идентификатор кодека : S_TEXT/UTF8
Идентификатор кодека/Информация : UTF-8 Plain Text
Продолжительность : 1 ч. 45 м.
Битрейт : 97 бит/сек
ElementCount : 1062
Размер потока : 75,6 Кбайт (0%)
Язык : Russian
Default : Нет
Forced : Нет


 
Не забывайте говорить Спасибо. Не уходите с раздачи!   
Торрент: Зарегистрирован [30 ноя 2018, 08:41] Скачать торрент
Скачать торрент
[ Размер 15.64 КБ / Просмотров 2 ]
Статус:
Проверен
 
.torrent скачан: 0 раз
Хэш: 13b6fbcded107653bf1e8ecb4389a041d7876215
Размер: 746.2 МБ (782 442 586 байт)
Стать Автором раздачи
 
 
Раздал: 100 ГБ
Скачал: 0 байт
Ратио: Seed.
Сообщения: 59805
Зарегистрирован: 31 мар 2015, 18:04


  • Похожие торренты
    Ответы
    Просмотры
    Последнее сообщение

Вернуться в Зарубежные фильмы 2006-2010 года

Ресурс не предоставляет электронные версии произведений, а занимается лишь коллекционированием и каталогизацией ссылок, присылаемых и публикуемых на форуме нашими читателями. Если вы являетесь правообладателем какого-либо представленного материала и не желаете чтобы ссылка на него находилась в нашем каталоге, свяжитесь с нами и мы незамедлительно удалим её. Файлы для обмена на трекере предоставлены пользователями сайта, и администрация не несёт ответственности за их содержание. Просьба не заливать файлы, защищенные авторскими правами, а также файлы нелегального содержания!
cron