Похороните мое сердце в Вундед-Ни / Bury My Heart at Wounded Knee (2007) WEB-DLRip 720p от KORSAR | P, A

 
 Статистика раздачи 
Размер: 7.95 ГБ   |  Зарегистрирован: 26 ноя 2018, 22:17   |   .torrent скачан: 0 раз
Сидеров: 1  [ 0 байт/сек ]     Личеров: 0  [ 0 байт/сек ]  
  

Похороните мое сердце в Вундед-Ни / Bury My Heart at Wounded Knee (2007) WEB-DLRip 720p от KORSAR | P, A

Сообщение graf_t » 26 ноя 2018, 23:16

Информация о фильме
Название: Похороните мое сердце в Вундед-Ни
Оригинальное название: Bury My Heart at Wounded Knee
Год выпуска: 2007
Жанр: Драма, вестерн, история
Режиссёр: Ив Симоно
В ролях: Анна Пакуин, Чевез Эзанех, Аугуст Шелленберг, Дуан Ховард, Уэс Стьюди, Эйдан Куинн, Колм Фиор, Фред Долтон Томпсон, Нэйтан Ли Чэсинг Хиз Хорс, Уэйн Чарльз Бэйкер, Брайан Столлери, Шон Джонстон, Гордон Тутусис, Билли Мерэсти, Моррис Бердйеллоухэд, Эдди Спирс, Адам Бич, Дж.К. Симмонс, Джимми Херман, Марти Антонини, Джонатан Брюэр, Джералд Токала Клиффорд

О фильме: Фильм снят по мотивам книги американского писателя Ди Брауна "Схороните моё сердце в Вундед-Ни. Фильм посвящен истории колонизации американского Запада и борьбы индейцев за свои права. Бойня на ручье Вундед-Ни была последним крупным вооруженным столкновением между индейцами сиу и армией США и одной из последних битв Индейских войн.



Выпущено: США, HBO Films, Traveler's Rest Films, Wolf Films
Продолжительность: 02:12:45
Перевод: Профессиональный многоголосый, авторский одноголосый

Файл
Качество: WEB-DLRip 720p
Видео: MPEG-4 AVC, 7100 Кбит/сек, 1280x720, 23.976 кадра/сек
Аудио 1: Russian: AC3, 6 ch, 384 Кбит/сек - MVO, Amedia
Аудио 2: Russian: AC3, 6 ch, 448 Кбит/сек - AVO, А. Дольский
Аудио 3: English: EAC3, 6 ch, 640 Кбит/сек - Оригинал
Субтитры: Русские, английские
Навигация по главам: Есть

Релиз от:


x264 [info]: frame I:1181 Avg QP:14.55 size: 160164
x264 [info]: frame P:41616 Avg QP:18.00 size: 65615
x264 [info]: frame B:148161 Avg QP:19.87 size: 27987

=======================================

Общее
Уникальный идентификатор : 252823305491124614399485891129332016278 (0xBE33FF5A1755B4328C1EB2E56FF52496)
Полное имя : Похороните.мое.сердце.в.Вундед.Ни.2007.WEB-DLRip.720p.KORSAR.mkv
Формат : Matroska
Версия формата : Version 2
Размер файла : 7,95 Гбайт
Продолжительность : 2 ч. 12 м.
Общий поток : 8572 Кбит/сек
Дата кодирования : UTC 2017-10-03 23:45:44
Программа кодирования : mkvmerge v5.8.0 ('No Sleep / Pillow') built on Sep 2 2012 15:37:04
Библиотека кодирования : libebml v1.2.3 + libmatroska v1.3.0

Видео
Идентификатор : 1
Формат : AVC
Формат/Информация : Advanced Video Codec
Профиль формата : High@L4.1
Параметр CABAC формата : Да
Параметр ReFrames формата : 9 кадров
Идентификатор кодека : V_MPEG4/ISO/AVC
Продолжительность : 2 ч. 12 м.
Битрейт : 7100 Кбит/сек
Ширина : 1280 пикселей
Высота : 720 пикселей
Соотношение сторон : 16:9
Режим частоты кадров : Постоянный
Частота кадров : 23,976 (24000/1001) кадра/сек
Цветовое пространство : YUV
Субдискретизация насыщенности : 4:2:0
Битовая глубина : 8 бит
Тип развёртки : Прогрессивная
Бит/(Пиксели*Кадры) : 0.321
Размер потока : 6,43 Гбайт (81%)
Заголовок : RIP | MZMA
Библиотека кодирования : x264 core 148 r2638 7599210
Настройки программы : cabac=1 / ref=9 / deblock=1:-3:-2 / analyse=0x3:0x113 / me=umh / subme=11 / psy=1 / psy_rd=1.00:0.00 / mixed_ref=1 / me_range=48 / chroma_me=1 / trellis=2 / 8x8dct=1 / cqm=0 / deadzone=21,11 / fast_pskip=0 / chroma_qp_offset=-2 / threads=6 / lookahead_threads=1 / sliced_threads=0 / nr=0 / decimate=0 / interlaced=0 / bluray_compat=0 / constrained_intra=0 / bframes=16 / b_pyramid=2 / b_adapt=2 / b_bias=0 / direct=3 / weightb=1 / open_gop=0 / weightp=2 / keyint=240 / keyint_min=23 / scenecut=40 / intra_refresh=0 / rc_lookahead=60 / rc=2pass / mbtree=1 / bitrate=7100 / ratetol=1.0 / qcomp=0.60 / qpmin=0 / qpmax=69 / qpstep=4 / cplxblur=20.0 / qblur=0.5 / vbv_maxrate=50000 / vbv_bufsize=62500 / nal_hrd=none / filler=0 / ip_ratio=1.40 / aq=3:0.90
Язык : English
Default : Да
Forced : Нет
Цветовой диапазон : Limited
Основные цвета : BT.709
Характеристики трансфера : BT.709
Коэффициенты матрицы : BT.709

Аудио #1
Идентификатор : 2
Формат : AC-3
Формат/Информация : Audio Coding 3
Параметр Endianness формата : Big
Идентификатор кодека : A_AC3
Продолжительность : 2 ч. 12 м.
Вид битрейта : Постоянный
Битрейт : 384 Кбит/сек
Каналы : 6 каналов
Расположение каналов : Front: L C R, Side: L R, LFE
Частота : 48,0 КГц
Частота кадров : 31,250 кадров/сек (1536 spf)
Битовая глубина : 16 бит
Метод сжатия : С потерями
Размер потока : 365 Мбайт (4%)
Заголовок : MVO | Amedia
Язык : Russian
Default : Да
Forced : Нет

Аудио #2
Идентификатор : 3
Формат : AC-3
Формат/Информация : Audio Coding 3
Параметр Endianness формата : Big
Идентификатор кодека : A_AC3
Продолжительность : 2 ч. 12 м.
Вид битрейта : Постоянный
Битрейт : 448 Кбит/сек
Каналы : 6 каналов
Расположение каналов : Front: L C R, Side: L R, LFE
Частота : 48,0 КГц
Частота кадров : 31,250 кадров/сек (1536 spf)
Битовая глубина : 16 бит
Метод сжатия : С потерями
Размер потока : 425 Мбайт (5%)
Заголовок : AVO | А. Дольский
Язык : Russian
Default : Нет
Forced : Нет

Аудио #3
Идентификатор : 4
Формат : E-AC-3
Формат/Информация : Enhanced Audio Coding 3
Параметр Endianness формата : Big
Идентификатор кодека : A_EAC3
Продолжительность : 2 ч. 12 м.
Вид битрейта : Постоянный
Битрейт : 640 Кбит/сек
Каналы : 6 каналов
Расположение каналов : Front: L C R, Side: L R, LFE
Частота : 48,0 КГц
Частота кадров : 187,500 кадров/сек (256 spf)
Метод сжатия : С потерями
Размер потока : 608 Мбайт (7%)
Заголовок : Original
Язык : English
Default : Нет
Forced : Нет

Текст #1
Идентификатор : 5
Формат : UTF-8
Идентификатор кодека : S_TEXT/UTF8
Идентификатор кодека/Информация : UTF-8 Plain Text
Язык : Russian
Default : Нет
Forced : Нет

Текст #2
Идентификатор : 6
Формат : UTF-8
Идентификатор кодека : S_TEXT/UTF8
Идентификатор кодека/Информация : UTF-8 Plain Text
Заголовок : 1
Язык : English
Default : Нет
Forced : Нет

Текст #3
Идентификатор : 7
Формат : UTF-8
Идентификатор кодека : S_TEXT/UTF8
Идентификатор кодека/Информация : UTF-8 Plain Text
Заголовок : 2
Язык : English
Default : Нет
Forced : Нет

Меню
00:00:00.000 : en:Chapter 1
00:04:37.699 : en:Chapter 2
00:09:59.864 : en:Chapter 3
00:15:47.825 : en:Chapter 4
00:20:36.088 : en:Chapter 5
00:25:26.237 : en:Chapter 6
00:30:54.460 : en:Chapter 7
00:36:28.540 : en:Chapter 8
00:42:10.243 : en:Chapter 9
00:46:41.415 : en:Chapter 10
00:52:04.944 : en:Chapter 11
00:58:02.534 : en:Chapter 12
01:03:38.901 : en:Chapter 13
01:09:11.256 : en:Chapter 14
01:13:58.436 : en:Chapter 15
01:19:12.055 : en:Chapter 16
01:23:45.073 : en:Chapter 17
01:29:02.704 : en:Chapter 18
01:35:18.348 : en:Chapter 19
01:40:39.751 : en:Chapter 20
01:46:47.492 : en:Chapter 21
01:50:51.021 : en:Chapter 22
01:55:09.515 : en:Chapter 23
01:58:58.440 : en:Chapter 24
02:06:10.855 : en:Chapter 25
 
Не забывайте говорить Спасибо. Не уходите с раздачи!   
Торрент: Зарегистрирован [26 ноя 2018, 22:17] Скачать торрент
Скачать торрент
[ Размер 40.79 КБ / Просмотров 0 ]
Статус:
Проверен
 
.torrent скачан: 0 раз
Хэш: 8a591d91cee3cdfa0cd3f1870c3a1b411a0a959d
Размер: 7.95 ГБ (8 534 323 916 байт)
Стать Автором раздачи
 
 
Раздал: 100 ГБ
Скачал: 0 байт
Ратио: Seed.
Сообщения: 59805
Зарегистрирован: 31 мар 2015, 18:04


  • Похожие торренты
    Ответы
    Просмотры
    Последнее сообщение

Вернуться в Зарубежные фильмы 2006-2010 года

Ресурс не предоставляет электронные версии произведений, а занимается лишь коллекционированием и каталогизацией ссылок, присылаемых и публикуемых на форуме нашими читателями. Если вы являетесь правообладателем какого-либо представленного материала и не желаете чтобы ссылка на него находилась в нашем каталоге, свяжитесь с нами и мы незамедлительно удалим её. Файлы для обмена на трекере предоставлены пользователями сайта, и администрация не несёт ответственности за их содержание. Просьба не заливать файлы, защищенные авторскими правами, а также файлы нелегального содержания!
cron