Я – легенда / I Am Legend (2007) UHDRip 2160p | 4K | SDR | Театральная версия | D, A

 
 Статистика раздачи 
Размер: 29.8 ГБ   |  Зарегистрирован: 26 ноя 2018, 10:30   |   .torrent скачан: 0 раз
Сидеров: 1  [ 0 байт/сек ]     Личеров: 0  [ 0 байт/сек ]  
  

Я – легенда / I Am Legend (2007) UHDRip 2160p | 4K | SDR | Театральная версия | D, A

Сообщение graf_t » 26 ноя 2018, 11:08

Информация о фильме
Название: Я – легенда
Оригинальное название: I Am Legend
Год выхода: 2007
Жанр: Фантастика, триллер, постапокалипсис, антиутопия, экранизация, вампиры
Режиссер: Фрэнсис Лоуренс
В ролях: Уилл Смит, Алиси Брага, Чарли Тахэн, Салли Ричардсон-Уитфилд, Уиллоу Смит, Даррел Фостер, Эйприл Грэйс, Дэш Майок, Джоанна Нумата, Эбби, Кона, Сэмюэл Глен, Джеймс Майкл МакКейли, Марин Айрлэнд, Педро Можица, Энтони С. Мацца, Стив Кирбус, Калиста Хилл, Габриэлла Хилл, Мадлен Хилл, Эди Шарма

О фильме:
Он выходит только днем. Он и его единственный и верный друг - собака, чтобы вновь и вновь передавать радиосигнал в надежде увидеть или услышать хоть кого-то, выжившего после эпидемии, кроме него... Единственное условие - успеть вернуться до заката! Он пытается найти лекарство от страшного вируса, забравшего у него близких и большую часть человечества, но для этого нужны подопытные - те, кто когда-то называли себя людьми. С последним пойманным экземпляром появилась надежда, но вместе с ней, пусть хрупкий, но налаженный мир вокруг него превратился в кошмар. Теперь охота началась на него...

Страна: США
Студия: Warner Bros, Village Roadshow Pictures, Weed Road Pictures
Продолжительность: 01:40:26
Перевод: Дублированный, авторский

Файл
Кодек: x264
Качество: UHDRip 2160p
Видео: 3840x1600, 39.0 Mbit/s, 23.976 fps, SDR
Звук:
Russian: AC3 / 5.1 / 48 kHz / 448 kbps / 16 bit - Дублированный
Russian: DTS / 5.1 / 48 kHz / 1509 kbps / 24 bit - М.Чадов (2018)
English: DTS / 5.1 / 48 kHz / 1509 kbps / 24 bit - Оригинал
Субтитры: Русские (forced, full), английские
Unique ID : 181722305700989745192171139097269131434 (0x88B671692FA5402925F9C2D8338858AA)
Complete name : D:I_Am_Legend.2007.х264.UHDRip.2160p.4K_SDR.mkv
Format : Matroska
Format version : Version 4
File size : 29.8 GiB
Duration : 1 h 40 min
Overall bit rate : 42.5 Mb/s
Movie name : =I Am Legend=
Encoded date : UTC 2018-11-23 11:54:17
Writing application : mkvmerge v28.2.0 ('The Awakening') 64-bit
Writing library : libebml v1.3.6 + libmatroska v1.4.9

Video
ID : 1
Format : AVC
Format/Info : Advanced Video Codec
Format profile : High@L5.1
Format settings : CABAC / 5 Ref Frames
Format settings, CABAC : Yes
Format settings, ReFrames : 5 frames
Codec ID : V_MPEG4/ISO/AVC
Duration : 1 h 40 min
Bit rate : 39.0 Mb/s
Width : 3 840 pixels
Height : 1 600 pixels
Display aspect ratio : 2.40:1
Frame rate mode : Constant
Frame rate : 23.976 (24000/1001) FPS
Color space : YUV
Chroma subsampling : 4:2:0
Bit depth : 8 bits
Scan type : Progressive
Bits/(Pixel*Frame) : 0.265
Stream size : 27.4 GiB (92%)
Title : UHD_2160p_SDR [stimco]
Writing library : x264 core 157 r2935 545de2f
Encoding settings : cabac=1 / ref=5 / deblock=1:-2:-2 / analyse=0x3:0x113 / me=umh / subme=10 / psy=1 / psy_rd=1.00:0.07 / mixed_ref=1 / me_range=32 / chroma_me=1 / trellis=2 / 8x8dct=1 / cqm=0 / deadzone=21,11 / fast_pskip=1 / chroma_qp_offset=-2 / threads=18 / lookahead_threads=4 / sliced_threads=0 / nr=0 / decimate=1 / interlaced=0 / bluray_compat=0 / constrained_intra=0 / bframes=12 / b_pyramid=2 / b_adapt=2 / b_bias=0 / direct=1 / weightb=1 / open_gop=0 / weightp=2 / keyint=230 / keyint_min=23 / scenecut=40 / intra_refresh=0 / rc_lookahead=120 / rc=crf / mbtree=0 / crf=18.5 / qcomp=0.60 / qpmin=0 / qpmax=69 / qpstep=4 / vbv_maxrate=300000 / vbv_bufsize=300000 / crf_max=0.0 / nal_hrd=none / filler=0 / ip_ratio=1.25 / pb_ratio=1.15 / aq=3:0.80
Language : English
Default : Yes
Forced : No
Color range : Limited
Color primaries : BT.709
Matrix coefficients : BT.709

Audio #1
ID : 2
Format : AC-3
Format/Info : Audio Coding 3
Commercial name : Dolby Digital
Codec ID : A_AC3
Duration : 1 h 40 min
Bit rate mode : Constant
Bit rate : 448 kb/s
Channel(s) : 6 channels
Channel layout : L R C LFE Ls Rs
Sampling rate : 48.0 kHz
Frame rate : 31.250 FPS (1536 SPF)
Bit depth : 16 bits
Compression mode : Lossy
Delay relative to video : 14 ms
Stream size : 322 MiB (1%)
Title : Dub [License]
Language : Russian
Service kind : Complete Main
Default : Yes
Forced : No

Audio #2
ID : 3
Format : DTS
Format/Info : Digital Theater Systems
Codec ID : A_DTS
Duration : 1 h 40 min
Bit rate mode : Constant
Bit rate : 1 509 kb/s
Channel(s) : 6 channels
Channel layout : C L R Ls Rs LFE
Sampling rate : 48.0 kHz
Frame rate : 93.750 FPS (512 SPF)
Bit depth : 24 bits
Compression mode : Lossy
Stream size : 1.06 GiB (4%)
Title : AVO [M.Chadov]
Language : Russian
Default : No
Forced : No

Audio #3
ID : 4
Format : DTS
Format/Info : Digital Theater Systems
Codec ID : A_DTS
Duration : 1 h 40 min
Bit rate mode : Constant
Bit rate : 1 509 kb/s
Channel(s) : 6 channels
Channel layout : C L R Ls Rs LFE
Sampling rate : 48.0 kHz
Frame rate : 93.750 FPS (512 SPF)
Bit depth : 24 bits
Compression mode : Lossy
Stream size : 1.06 GiB (4%)
Title : Original
Language : English
Default : No
Forced : No

Text #1
ID : 5
Format : UTF-8
Codec ID : S_TEXT/UTF8
Codec ID/Info : UTF-8 Plain Text
Duration : 1 h 39 min
Bit rate : 0 b/s
Count of elements : 12
Stream size : 549 Bytes (0%)
Title : Forced
Language : Russian
Default : Yes
Forced : No

Text #2
ID : 6
Format : UTF-8
Codec ID : S_TEXT/UTF8
Codec ID/Info : UTF-8 Plain Text
Duration : 1 h 33 min
Bit rate : 56 b/s
Count of elements : 692
Stream size : 38.4 KiB (0%)
Title : Full
Language : Russian
Default : No
Forced : No

Text #3
ID : 7
Format : UTF-8
Codec ID : S_TEXT/UTF8
Codec ID/Info : UTF-8 Plain Text
Duration : 1 h 31 min
Bit rate : 33 b/s
Count of elements : 658
Stream size : 22.3 KiB (0%)
Title : Full
Language : English
Default : No
Forced : No

Menu
00:00:00.000 : en:Chapter 1
00:02:14.134 : en:Chapter 2
00:07:56.476 : en:Chapter 3
00:12:07.393 : en:Chapter 4
00:15:15.706 : en:Chapter 5
00:18:20.099 : en:Chapter 6
00:23:22.526 : en:Chapter 7
00:26:42.183 : en:Chapter 8
00:31:49.282 : en:Chapter 9
00:34:15.595 : en:Chapter 10
00:37:45.805 : en:Chapter 11
00:39:16.145 : en:Chapter 12
00:44:06.644 : en:Chapter 13
00:48:50.928 : en:Chapter 14
00:53:12.731 : en:Chapter 15
00:56:54.786 : en:Chapter 16
00:59:41.452 : en:Chapter 17
01:02:41.090 : en:Chapter 18
01:04:30.658 : en:Chapter 19
01:09:18.487 : en:Chapter 20
01:11:21.902 : en:Chapter 21
01:17:38.779 : en:Chapter 22
01:20:14.935 : en:Chapter 23
01:24:10.920 : en:Chapter 24
01:27:59.691 : en:Chapter 25
01:29:48.049 : en:Chapter 26
01:31:48.002 : en:Chapter 27


 
Не забывайте говорить Спасибо. Не уходите с раздачи!   
Торрент: Зарегистрирован [26 ноя 2018, 10:30] Скачать торрент
Скачать торрент
[ Размер 149.86 КБ / Просмотров 0 ]
Статус:
Проверен
 
.torrent скачан: 0 раз
Хэш: f1c57be5f08283d168fbfe3487fdb575abf93ed2
Размер: 29.8 ГБ (31 992 283 759 байт)
Стать Автором раздачи
 
 
Раздал: 100 ГБ
Скачал: 0 байт
Ратио: Seed.
Сообщения: 59805
Зарегистрирован: 31 мар 2015, 18:04


  • Похожие торренты
    Ответы
    Просмотры
    Последнее сообщение

Вернуться в Зарубежные фильмы 2006-2010 года

Ресурс не предоставляет электронные версии произведений, а занимается лишь коллекционированием и каталогизацией ссылок, присылаемых и публикуемых на форуме нашими читателями. Если вы являетесь правообладателем какого-либо представленного материала и не желаете чтобы ссылка на него находилась в нашем каталоге, свяжитесь с нами и мы незамедлительно удалим её. Файлы для обмена на трекере предоставлены пользователями сайта, и администрация не несёт ответственности за их содержание. Просьба не заливать файлы, защищенные авторскими правами, а также файлы нелегального содержания!
cron