Крах инженера Гарина (1973) DVDRip-AVC от KORSAR

 
 Статистика раздачи 
Размер: 5.2 ГБ   |  Зарегистрирован: 24 ноя 2018, 07:53   |   .torrent скачан: 0 раз
Сидеров: 1  [ 0 байт/сек ]     Личеров: 0  [ 0 байт/сек ]  
  

Крах инженера Гарина (1973) DVDRip-AVC от KORSAR

Сообщение Nasty » 24 ноя 2018, 08:40

Крах инженера Гарина

Страна: СССР
Жанр: Фантастика
Год выпуска: 1973
Продолжительность: 01:05:00+01:03:22+01:03:20+01:02:55
Перевод: Не требуется

Режиссер: Леонид Квинихидзе
В ролях: Олег Борисов, Александр Белявский, Александр Кайдановский, Ефим Копелян, Нонна Терентьева

Описание: Четырехсерийный телефильм, снятый по мотивам известного фантастического романа Алексея Толстого.
Петр Петрович Гарин, талантливый русский изобретатель и абсолютно беспринципный человек, рвется к господству над миром...



Кодек: х264
Качество: DVDRip-AVC
Видео: MPEG-4 AVC, 2250 Кбит/с, 720х[email protected]х576, 25 fps
Аудио: АС3, 6 сh, 448 Кбит/с, АС3, 1 сh, 224 Кбит/с
Субтитры: Нет
Главы: Есть






x264 [info]: frame I:546 Avg QP:16.00 size: 77097
x264 [info]: frame P:23193 Avg QP:18.80 size: 27999
x264 [info]: frame B:73761 Avg QP:20.04 size: 5497

Общее
Уникальный идентификатор : 222921448370994356367035234871787792448 (0xA7B51BF8E1C73EB99E3E9C20E17A2840)
Полное имя : H:СССРКрах инженера Гарина 1973_DVDRip-AVC_KORSAR1 Серия.mkv
Формат : Matroska
Версия формата : Version 2
Размер файла : 1,33 Гбайт
Продолжительность : 1 ч. 5 м.
Общий поток : 2924 Кбит/сек
Дата кодирования : UTC 2018-11-22 11:28:44
Программа кодирования : mkvmerge v5.8.0 ('No Sleep / Pillow') built on Sep 2 2012 15:37:04
Библиотека кодирования : libebml v1.2.3 + libmatroska v1.3.0

Видео
Идентификатор : 1
Формат : AVC
Формат/Информация : Advanced Video Codec
Профиль формата : High@L4.1
Настройки формата : CABAC / 15 Ref Frames
Параметр CABAC формата : Да
Параметр RefFrames формата : 15 кадров
Идентификатор кодека : V_MPEG4/ISO/AVC
Продолжительность : 1 ч. 5 м.
Битрейт : 2250 Кбит/сек
Ширина : 720 пикселей
Высота : 576 пикселей
Соотношение сторон : 4:3
Режим частоты кадров : Постоянный
Частота кадров : 25,000 кадров/сек
Стандарт вещания : PAL
Цветовое пространство : YUV
Субдискретизация насыщенности : 4:2:0
Битовая глубина : 8 бит
Тип развёртки : Прогрессивная
Бит/(Пиксели*Кадры) : 0.217
Размер потока : 1020 Мбайт (75%)
Библиотека кодирования : x264 core 152 r2851kMod ba24899
Настройки программы : cabac=1 / ref=15 / deblock=1:-2:-2 / analyse=0x3:0x133 / me=umh / subme=11 / psy=1 / fade_compensate=0.00 / psy_rd=1.05:0.03 / mixed_ref=1 / me_range=48 / chroma_me=1 / trellis=2 / 8x8dct=1 / cqm=0 / deadzone=21,11 / fast_pskip=0 / chroma_qp_offset=-3 / threads=12 / lookahead_threads=3 / sliced_threads=0 / nr=0 / decimate=0 / interlaced=0 / bluray_compat=0 / constrained_intra=0 / bframes=12 / b_pyramid=2 / b_adapt=2 / b_bias=0 / direct=3 / weightb=1 / open_gop=0 / weightp=2 / keyint=250 / keyint_min=25 / scenecut=40 / intra_refresh=0 / rc_lookahead=40 / rc=2pass / mbtree=0 / bitrate=2250 / ratetol=1.0 / qcomp=0.60 / qpmin=0 / qpmax=39 / qpstep=4 / cplxblur=20.0 / qblur=0.5 / vbv_maxrate=50000 / vbv_bufsize=62500 / nal_hrd=none / filler=0 / ip_ratio=1.25 / pb_ratio=1.30 / aq=1:1.00
Язык : English
Default : Да
Forced : Нет
Цветовой диапазон : Limited
Основные цвета : BT.601 PAL
Характеристики трансфера : BT.470 System B, BT.470 System G
Коэффициенты матрицы : BT.470 System B, BT.470 System G

Аудио #1
Идентификатор : 2
Формат : AC-3
Формат/Информация : Audio Coding 3
Параметр Endianness формата : Big
Идентификатор кодека : A_AC3
Продолжительность : 1 ч. 5 м.
Вид битрейта : Постоянный
Битрейт : 448 Кбит/сек
Каналы : 6 каналов
Расположение каналов : Front: L C R, Side: L R, LFE
Частота : 48,0 КГц
Частота кадров : 31,250 кадров/сек (1536 SPF)
Битовая глубина : 16 бит
Метод сжатия : С потерями
Задержка видео : 62 мс.
Размер потока : 208 Мбайт (15%)
Язык : Russian
Default : Да
Forced : Нет

Аудио #2
Идентификатор : 3
Формат : AC-3
Формат/Информация : Audio Coding 3
Параметр Endianness формата : Big
Идентификатор кодека : A_AC3
Продолжительность : 1 ч. 5 м.
Вид битрейта : Постоянный
Битрейт : 224 Кбит/сек
Каналы : 1 канал
Расположение каналов : Front: C
Частота : 48,0 КГц
Частота кадров : 31,250 кадров/сек (1536 SPF)
Битовая глубина : 16 бит
Метод сжатия : С потерями
Задержка видео : 60 мс.
Размер потока : 104 Мбайт (8%)
Язык : Russian
Default : Нет
Forced : Нет

Меню
00:00:00.000 : en:Chapter 1
00:04:52.680 : en:Chapter 2
00:13:19.080 : en:Chapter 3
00:16:24.840 : en:Chapter 4
00:27:11.880 : en:Chapter 5
00:39:02.760 : en:Chapter 6
00:42:43.080 : en:Chapter 7
00:48:56.040 : en:Chapter 8
00:55:30.120 : en:Chapter 9
01:01:30.600 : en:Chapter 10
 
Не забывайте говорить Спасибо. Не уходите с раздачи!   
Торрент: Зарегистрирован [24 ноя 2018, 07:53] Скачать торрент
Скачать торрент
[ Размер 27.13 КБ / Просмотров 4 ]
Статус:
Проверен
 
.torrent скачан: 0 раз
Хэш: 597ff3794821098ddbcf4eece0d0010cbb93b562
Размер: 5.2 ГБ (5 583 435 340 байт)
Стать Автором раздачи
 
 
Раздал: 100 ГБ
Скачал: 0 байт
Ратио: Seed.
Сообщения: 39821
Зарегистрирован: 09 апр 2015, 19:56


  • Похожие торренты
    Ответы
    Просмотры
    Последнее сообщение

Вернуться в Кино СССР, Советской России, Российской республики (1917-1991)

Ресурс не предоставляет электронные версии произведений, а занимается лишь коллекционированием и каталогизацией ссылок, присылаемых и публикуемых на форуме нашими читателями. Если вы являетесь правообладателем какого-либо представленного материала и не желаете чтобы ссылка на него находилась в нашем каталоге, свяжитесь с нами и мы незамедлительно удалим её. Файлы для обмена на трекере предоставлены пользователями сайта, и администрация не несёт ответственности за их содержание. Просьба не заливать файлы, защищенные авторскими правами, а также файлы нелегального содержания!
cron