Крейг из царства Ручья / Craig of the Creek [01x32-33] (2018) WEBRip 720p | ColdFilm

 
 Статистика раздачи 
Размер: 10.13 ГБ   |  Зарегистрирован: 10 ноя 2018, 19:47   |   .torrent скачан: 0 раз
Сидеров: 1  [ 0 байт/сек ]     Личеров: 0  [ 0 байт/сек ]  
  

Крейг из царства Ручья / Craig of the Creek [01x32-33] (2018) WEBRip 720p | ColdFilm

Сообщение explosiveone » 10 ноя 2018, 20:12

Информация о фильме
Название: Крейг из царства Ручья
Оригинальное название: Craig of the Creek
Год выпуска: 2018
Жанр: Мультфильм, короткометражка, комедия, приключения
Режиссер: Мэтт Барнетт, Бен Левин
В ролях: Дхарма Браун, Майкл Кронер, Карен Фукухара, Джорджина Кордова, Фил ЛаМарр, Филип Соломон

О фильме:
Главным героем этой увлекательной истории является мальчишка по имени Крейг. Он еще совсем юн, ведь не так давно ему исполнилось всего 10 лет. Крейг живет на городской окраине, которая граничит с лесным массивом. Жизнь здесь течет вяло и размеренно, поэтому большую часть свободного времени мальчик проводит вместе со своими лучшими друзьями. Одного из них зовут Келси, а второго – Джей Пи. Возможно, что главный герой так и продолжал бы ежедневно играть с приятелями, смотреть телевизор, читать книги, если бы однажды не потерял одну очень важную для себя вещь. Она случайно упала в канализационную трубу. В сложившейся ситуации Крейг попросил помощи у своих лучших друзей. Так ребята отправились на поиски входа в канализацию и оказались втянутыми в опасные приключения.



Страна: США
Студия: Cartoon Network Studios
Продолжительность: 32x ~00:11:00
Перевод: Любительский многоголосый закадровый [ColdFilm]

Файл
Кодек: x264 (AVC)
Качество: WEBRip 720p
Видео: 4000 Кбит/с, 1280x720, 29.970 fps
Аудио: Русский (AC3, 2 ch, 125 Кбит/с)


General
Unique ID : 196334171838293056154594465459298677548 (0x93B496085AD2A5518005B0A85EE4B32C)
Complete name : D:Craig.of.the.Creek.S01E01E02.720p.ColdFilmCraig.of.the.Creek.S01E01.720p.ColdFilm.mkv
Format : Matroska
Format version : Version 2
File size : 346 MiB
Duration : 11 min 27 s
Overall bit rate : 4 226 kb/s
Encoded date : UTC 2018-04-01 19:15:55 / UTC 2017-11-20 18:25:40
Writing application : mkvmerge v3.3.0 ('Language') built on Mar 24 2010 14:59:24
Writing library : libebml v0.8.0 + libmatroska v0.9.0 / Lavf54.63.104

Video
ID : 1
Format : AVC
Format/Info : Advanced Video Codec
Format profile : Main@L3.1
Format settings : CABAC / 1 Ref Frames
Format settings, CABAC : Yes
Format settings, ReFrames : 1 frame
Codec ID : V_MPEG4/ISO/AVC
Duration : 11 min 27 s
Bit rate : 4 000 kb/s
Width : 1 280 pixels
Height : 720 pixels
Display aspect ratio : 16:9
Frame rate mode : Constant
Frame rate : 25.000 FPS
Color space : YUV
Chroma subsampling : 4:2:0
Bit depth : 8 bits
Scan type : Progressive
Bits/(Pixel*Frame) : 0.174
Stream size : 324 MiB (93%)
Writing library : x264 core 129
Encoding settings : cabac=1 / ref=1 / deblock=1:0:0 / analyse=0x1:0x131 / me=dia / subme=2 / psy=1 / psy_rd=1.00:0.00 / mixed_ref=0 / me_range=16 / chroma_me=1 / trellis=0 / 8x8dct=0 / cqm=0 / deadzone=21,11 / fast_pskip=1 / chroma_qp_offset=0 / threads=4 / lookahead_threads=1 / sliced_threads=0 / nr=0 / decimate=1 / interlaced=0 / bluray_compat=0 / constrained_intra=0 / bframes=0 / weightp=2 / keyint=250 / keyint_min=25 / scenecut=40 / intra_refresh=0 / rc_lookahead=40 / rc=abr / mbtree=1 / bitrate=4000 / ratetol=1.0 / qcomp=0.60 / qpmin=10 / qpmax=51 / qpstep=4 / ip_ratio=1.41 / aq=1:1.00
Default : No
Forced : No

Audio
ID : 2
Format : AC-3
Format/Info : Audio Coding 3
Codec ID : A_AC3
Duration : 11 min 27 s
Bit rate mode : Constant
Bit rate : 192 kb/s
Channel(s) : 2 channels
Channel positions : Front: L R
Sampling rate : 48.0 kHz
Frame rate : 31.250 FPS (1536 SPF)
Bit depth : 16 bits
Compression mode : Lossy
Stream size : 15.7 MiB (5%)
Service kind : Complete Main
Default : Yes
Forced : No


Релиз от:
 
Не забывайте говорить Спасибо. Не уходите с раздачи!   
Торрент: Зарегистрирован [10 ноя 2018, 19:47] Скачать торрент
Скачать торрент
[ Размер 53.88 КБ / Просмотров 1 ]
Статус:
Проверен
 
.torrent скачан: 0 раз
Хэш: 5f05127981bdfffddf874225bc06b638c1d9fb46
Размер: 10.13 ГБ (10 881 048 994 байт)
Стать Автором раздачи
 
 
Раздал: 100 ГБ
Скачал: 0 байт
Ратио: Seed.
Сообщения: 103676
Зарегистрирован: 09 апр 2015, 22:31


  • Похожие торренты
    Ответы
    Просмотры
    Последнее сообщение

Вернуться в Мультфильмы и мультсериалы

Ресурс не предоставляет электронные версии произведений, а занимается лишь коллекционированием и каталогизацией ссылок, присылаемых и публикуемых на форуме нашими читателями. Если вы являетесь правообладателем какого-либо представленного материала и не желаете чтобы ссылка на него находилась в нашем каталоге, свяжитесь с нами и мы незамедлительно удалим её. Файлы для обмена на трекере предоставлены пользователями сайта, и администрация не несёт ответственности за их содержание. Просьба не заливать файлы, защищенные авторскими правами, а также файлы нелегального содержания!
cron