До смерти / Until Death (2007) HDRip-AVC от ExKinoRay | P

 
 Статистика раздачи 
Размер: 745.59 МБ   |  Зарегистрирован: 10 ноя 2018, 08:24   |   .torrent скачан: 0 раз
Сидеров: 1  [ 0 байт/сек ]     Личеров: 0  [ 0 байт/сек ]  
  

До смерти / Until Death (2007) HDRip-AVC от ExKinoRay | P

Сообщение graf_t » 10 ноя 2018, 09:03

Информация о фильме
Название: До смерти
Оригинальное название: Until Death
Год выхода: 2007
Жанр: Боевик, триллер, драма
Режиссер: Саймон Феллоуз
В ролях: Жан-Клод Ван Дамм, Селина Джиллз, Марк Даймонд, Уильям Эш, Стивен Лорд, Гари Бидл, С. Джерод Харрис, Уэс Робинсон, Стивен Ри, Баффи Дэвис

О фильме :
Энтони Стой служит в полиции, он лейтенант наркоотдела. Имеет безобразную репутацию и склочный характер, все это еще отягощено пристрастием к героину. Данные факторы обеспечили Энтони ненависть коллег, отношения с супругой тоже весьма напряжены, они разводятся. Бывший партнер, Гэбриэль Каллахан стремится подмять под себя весь организованный преступный мир. Его люди совершают неудачное покушение на жизнь Энтони. Полицейский ранен, он впадает в кому. Требуются месяцы восстановления, Энтони лелеет одну мысль расквитаться с бывшим компаньоном.



Страна: США, Германия, Великобритания, Болгария
Студия: Signature Entertainment, Millennium Films
Продолжительность: 01:46:46
Перевод: Профессиональный (многоголосый, закадровый) ТК Россия

Файл
Формат: MKV
Качество: HDRip-AVC
Видео: MPEG-4 AVC, 784x332, - 899 Кбит/с
Аудио: AAC-HE, 2 ch, - 76 Кбит/с
Субтитры: Нет

Общее
Уникальный идентификатор : 219184631595979574227853254248924816916 (0xA4E56CAE42EC168F94A1ADC03DADA614)
Полное имя : D:MOVIESUntil Death.2007.HDRip-AVC.ExKinoRay.mkv
Формат : Matroska
Версия формата : Version 4 / Version 2
Размер файла : 746 Мбайт
Продолжительность : 1 ч. 46 м.
Общий поток : 976 Кбит/сек
Дата кодирования : UTC 2018-11-10 05:07:51
Программа кодирования : mkvmerge v15.0.0 ('Duel with the Devil') 64-bit
Библиотека кодирования : libebml v1.3.5 + libmatroska v1.4.5

Видео
Идентификатор : 1
Формат : AVC
Формат/Информация : Advanced Video Codec
Профиль формата : High@L4.1
Параметр CABAC формата : Да
Параметр RefFrames формата : 12 кадров
Идентификатор кодека : V_MPEG4/ISO/AVC
Продолжительность : 1 ч. 46 м.
Битрейт : 899 Кбит/сек
Ширина : 784 пикселя
Высота : 332 пикселя
Соотношение сторон : 2,35:1
Режим частоты кадров : Постоянный
Частота кадров : 23,976 (24000/1001) кадра/сек
Цветовое пространство : YUV
Субдискретизация насыщенности : 4:2:0
Битовая глубина : 8 бит
Тип развёртки : Прогрессивная
Бит/(Пиксели*Кадры) : 0.144
Размер потока : 686 Мбайт (92%)
Библиотека кодирования : x264 core 152 r2851kMod ba24899
Настройки программы : cabac=1 / ref=12 / deblock=1:-3:-3 / analyse=0x3:0x133 / me=umh / subme=10 / psy=1 / fade_compensate=0.00 / psy_rd=1.00:0.14 / mixed_ref=1 / me_range=32 / chroma_me=1 / trellis=2 / 8x8dct=1 / cqm=0 / deadzone=21,11 / fast_pskip=0 / chroma_qp_offset=-3 / threads=6 / lookahead_threads=1 / sliced_threads=0 / nr=0 / decimate=0 / interlaced=0 / bluray_compat=0 / constrained_intra=0 / bframes=11 / b_pyramid=2 / b_adapt=2 / b_bias=0 / direct=3 / weightb=1 / open_gop=0 / weightp=2 / keyint=240 / keyint_min=23 / scenecut=40 / intra_refresh=0 / rc_lookahead=40 / rc=2pass / mbtree=1 / bitrate=899 / ratetol=1.0 / qcomp=0.60 / qpmin=0 / qpmax=69 / qpstep=4 / cplxblur=20.0 / qblur=0.5 / ip_ratio=1.40 / aq=3:1.00
Default : Да
Forced : Нет

Аудио
Идентификатор : 2
Формат : AAC
Формат/Информация : Advanced Audio Codec
Профиль формата : HE-AAC / LC
Идентификатор кодека : A_AAC
Продолжительность : 1 ч. 46 м.
Битрейт : 76,0 Кбит/сек
Каналы : 2 канала
Расположение каналов : Front: L R
Частота : 48,0 КГц / 24,0 КГц
Частота кадров : 23,438 кадра/сек (1024 SPF)
Метод сжатия : С потерями
Задержка видео : 31 мс.
Размер потока : 58,0 Мбайт (8%)
Язык : Russian
Default : Да
Forced : Нет


 
Не забывайте говорить Спасибо. Не уходите с раздачи!   
Торрент: Зарегистрирован [10 ноя 2018, 08:24] Скачать торрент
Скачать торрент
[ Размер 15.61 КБ / Просмотров 0 ]
Статус:
Проверен
 
.torrent скачан: 0 раз
Хэш: 510ae7a2bc926177cfd9e319fde231332fd30524
Размер: 745.59 МБ (781 812 323 байт)
Стать Автором раздачи
 
 
Раздал: 100 ГБ
Скачал: 0 байт
Ратио: Seed.
Сообщения: 58383
Зарегистрирован: 31 мар 2015, 18:04


  • Похожие торренты
    Ответы
    Просмотры
    Последнее сообщение

Вернуться в Зарубежные фильмы 2006-2010 года

Ресурс не предоставляет электронные версии произведений, а занимается лишь коллекционированием и каталогизацией ссылок, присылаемых и публикуемых на форуме нашими читателями. Если вы являетесь правообладателем какого-либо представленного материала и не желаете чтобы ссылка на него находилась в нашем каталоге, свяжитесь с нами и мы незамедлительно удалим её. Файлы для обмена на трекере предоставлены пользователями сайта, и администрация не несёт ответственности за их содержание. Просьба не заливать файлы, защищенные авторскими правами, а также файлы нелегального содержания!
cron