Молодая Виктория / The Young Victoria (2009) BDRip 1080p от OlLanDGroup | Лицензия

 
 Статистика раздачи 
Размер: 10.86 ГБ   |  Зарегистрирован: 09 ноя 2018, 19:43   |   .torrent скачан: 0 раз
Сидеров: 1  [ 0 байт/сек ]     Личеров: 0  [ 0 байт/сек ]  
  

Молодая Виктория / The Young Victoria (2009) BDRip 1080p от OlLanDGroup | Лицензия

Сообщение graf_t » 10 ноя 2018, 00:41

Информация о фильме
Название: Молодая Виктория
Оригинальное название: The Young Victoria
Год выпуска: 2009
Жанр: Мелодрама, драма, история, биография, экранизация
Выпущено: США, Великобритания, GK Films
Режиссер: Жан-Марк Валле
В ролях: Эмили Блант, Руперт Френд, Пол Беттани, Миранда Ричардсон, Джим Бродбент, Томас Кречманн, Марк Стронг, Еспер Кристенсен, Харриет Уолтер, Жанетт Хайн, Рэйчел Стирлинг
О фильме: Отец Виктории, герцог Кентский, умер, когда дочери не было и года. В 11 лет она осознала, что ей предначертано стать королевой Британской империи. Еще совсем юная, она сумела добиться уважения и любви своего народа. Виктория пробыла на троне более 63 лет — больше, чем любой другой британский монарх. Викторианская эпоха совпала с периодом наибольшего расцвета Британской империи. Но для нее самые счастливые годы — те, что она любила и была любима.

Качество: BDRip (1080p)
Видео: MPEG-4 AVC, 9043 Кбит/с, 1920x816, 23.976 кадр/с
Аудио: Русский, украинский (AC3, 6 ch, 640 Кбит/с), (DTS, 6 ch, 1509 Кбит/с), английский (DTS, 6 ch, 1509 Кбит/с)
Размер: 10.86 ГБ
Продолжительность: 01:44:39
Перевод: Дублированный
Субтитры: Английские
Озвучивание - (Лицензия)
Сохранены оригинальные чаптеры как на Blu-Ray.
За исходник, большое спасибо BLUEBIRD
x264 [info]: frame I:1046 Avg QP:15.04 size:229192
x264 [info]: frame P:29964 Avg QP:17.40 size: 92750
x264 [info]: frame B:119542 Avg QP:19.33 size: 34137
x264 [info]: consecutive B-frames: 1.3% 3.2% 4.4% 17.9% 15.7% 32.4% 9.6% 12.7% 2.0% 0.4% 0.5%
x264 [info]: mb I I16..4: 10.7% 76.5% 12.8%
x264 [info]: mb P I16..4: 1.2% 16.7% 0.7% P16..4: 28.9% 35.9% 13.2% 2.0% 0.1% skip: 1.3%
x264 [info]: mb B I16..4: 0.0% 1.0% 0.0% B16..8: 41.9% 22.5% 3.7% direct: 6.6% skip:24.3% L0:46.0% L1:43.8% BI:10.2%
x264 [info]: 8x8 transform intra:88.6% inter:51.9%
x264 [info]: direct mvs spatial:98.7% temporal:1.3%
x264 [info]: coded y,uvDC,uvAC intra: 96.1% 88.5% 76.3% inter: 37.7% 28.4% 12.9%
x264 [info]: i16 v,h,dc,p: 21% 8% 38% 33%
x264 [info]: i8 v,h,dc,ddl,ddr,vr,hd,vl,hu: 9% 6% 16% 10% 13% 12% 11% 12% 11%
x264 [info]: i4 v,h,dc,ddl,ddr,vr,hd,vl,hu: 13% 7% 14% 9% 13% 13% 11% 10% 10%
x264 [info]: i8c dc,h,v,p: 50% 18% 16% 16%
x264 [info]: Weighted P-Frames: Y:4.2% UV:2.7%
x264 [info]: ref P L0: 45.5% 8.1% 26.4% 9.3% 9.9% 0.8% 0.0%
x264 [info]: ref B L0: 74.5% 18.3% 5.5% 1.7%
x264 [info]: ref B L1: 92.7% 7.3%
x264 [info]: kb/s:9045.25


Общее
Уникальный идентификатор : 203353651766089485780782397878940634823 (0x98FC7D1CFEC0FA99B252280072168EC7)
Полное имя : D:ЗагрузкиThe.Young.Victoria.2009.x264.BDRip.(1080p).OlLanDGroup.mkv
Формат : Matroska
Версия формата : Version 4 / Version 2
Размер файла : 10,9 Гбайт
Продолжительность : 1 ч. 44 м.
Общий поток : 14,9 Мбит/сек
Название фильма : Молодая Виктория.2009.Rip by: ollan
Дата кодирования : UTC 2018-11-09 16:31:14
Программа кодирования : mkvmerge v6.5.0 ('Isn't she lovely') built on Oct 20 2013 12:50:05
Библиотека кодирования : libebml v1.3.0 + libmatroska v1.4.1
Обложка : Yes
Attachments : Cover - The.Young.Victoria.png

Видео
Идентификатор : 1
Формат : AVC
Формат/Информация : Advanced Video Codec
Профиль формата : High@L4.1
Настройки формата : CABAC / 5 Ref Frames
Параметр CABAC формата : Да
Параметр ReFrames формата : 5 кадров
Идентификатор кодека : V_MPEG4/ISO/AVC
Продолжительность : 1 ч. 44 м.
Битрейт : 9043 Кбит/сек
Ширина : 1920 пикселей
Высота : 816 пикселей
Соотношение сторон : 2,35:1
Режим частоты кадров : Постоянный
Частота кадров : 23,976 (24000/1001) кадра/сек
Цветовое пространство : YUV
Субдискретизация насыщенности : 4:2:0
Битовая глубина : 8 бит
Тип развёртки : Прогрессивная
Бит/(Пиксели*Кадры) : 0.241
Размер потока : 6,40 Гбайт (59%)
Библиотека кодирования : x264 core 146 r2538 121396c
Настройки программы : cabac=1 / ref=5 / deblock=1:-2:-3 / analyse=0x3:0x133 / me=umh / subme=11 / psy=1 / psy_rd=0.90:0.05 / mixed_ref=1 / me_range=64 / chroma_me=1 / trellis=2 / 8x8dct=1 / cqm=0 / deadzone=21,11 / fast_pskip=0 / chroma_qp_offset=-3 / threads=12 / lookahead_threads=3 / sliced_threads=0 / nr=0 / decimate=0 / interlaced=0 / bluray_compat=0 / constrained_intra=0 / bframes=10 / b_pyramid=2 / b_adapt=2 / b_bias=0 / direct=3 / weightb=1 / open_gop=0 / weightp=2 / keyint=240 / keyint_min=23 / scenecut=40 / intra_refresh=0 / rc_lookahead=40 / rc=2pass / mbtree=0 / bitrate=9043 / ratetol=1.0 / qcomp=0.60 / qpmin=0 / qpmax=69 / qpstep=4 / cplxblur=20.0 / qblur=0.5 / vbv_maxrate=50000 / vbv_bufsize=62500 / nal_hrd=none / filler=0 / ip_ratio=1.40 / pb_ratio=1.30 / aq=1:1.00
Язык : English
Default : Да
Forced : Нет

Аудио #1
Идентификатор : 2
Формат : AC-3
Формат/Информация : Audio Coding 3
Идентификатор кодека : A_AC3
Продолжительность : 1 ч. 44 м.
Вид битрейта : Постоянный
Битрейт : 640 Кбит/сек
Каналы : 6 каналов
Расположение каналов : Front: L C R, Side: L R, LFE
Частота : 48,0 КГц
Частота кадров : 31,250 кадров/сек (1536 SPF)
Битовая глубина : 16 бит
Метод сжатия : С потерями
Размер потока : 479 Мбайт (4%)
Заголовок : Дублированный (Лицензия)
Язык : Russian
Service kind : Complete Main
Default : Да
Forced : Нет

Аудио #2
Идентификатор : 3
Формат : DTS
Формат/Информация : Digital Theater Systems
Идентификатор кодека : A_DTS
Продолжительность : 1 ч. 44 м.
Вид битрейта : Постоянный
Битрейт : 1509 Кбит/сек
Каналы : 6 каналов
Расположение каналов : Front: L C R, Side: L R, LFE
Частота : 48,0 КГц
Частота кадров : 93,750 кадра/сек (512 SPF)
Битовая глубина : 24 бит
Метод сжатия : С потерями
Размер потока : 1,10 Гбайт (10%)
Заголовок : Дублированный (Лицензия)
Язык : Russian
Default : Нет
Forced : Нет

Аудио #3
Идентификатор : 4
Формат : AC-3
Формат/Информация : Audio Coding 3
Идентификатор кодека : A_AC3
Продолжительность : 1 ч. 44 м.
Вид битрейта : Постоянный
Битрейт : 640 Кбит/сек
Каналы : 6 каналов
Расположение каналов : Front: L C R, Side: L R, LFE
Частота : 48,0 КГц
Частота кадров : 31,250 кадров/сек (1536 SPF)
Битовая глубина : 16 бит
Метод сжатия : С потерями
Размер потока : 479 Мбайт (4%)
Заголовок : Профессиональный многоголосый
Язык : Ukrainian
Service kind : Complete Main
Default : Нет
Forced : Нет

Аудио #4
Идентификатор : 5
Формат : DTS
Формат/Информация : Digital Theater Systems
Идентификатор кодека : A_DTS
Продолжительность : 1 ч. 44 м.
Вид битрейта : Постоянный
Битрейт : 1509 Кбит/сек
Каналы : 6 каналов
Расположение каналов : Front: L C R, Side: L R, LFE
Частота : 48,0 КГц
Частота кадров : 93,750 кадра/сек (512 SPF)
Битовая глубина : 24 бит
Метод сжатия : С потерями
Размер потока : 1,10 Гбайт (10%)
Заголовок : Профессиональный многоголосый
Язык : Ukrainian
Default : Нет
Forced : Нет

Аудио #5
Идентификатор : 6
Формат : DTS
Формат/Информация : Digital Theater Systems
Идентификатор кодека : A_DTS
Продолжительность : 1 ч. 44 м.
Вид битрейта : Постоянный
Битрейт : 1509 Кбит/сек
Каналы : 6 каналов
Расположение каналов : Front: L C R, Side: L R, LFE
Частота : 48,0 КГц
Частота кадров : 93,750 кадра/сек (512 SPF)
Битовая глубина : 24 бит
Метод сжатия : С потерями
Размер потока : 1,10 Гбайт (10%)
Язык : English
Default : Нет
Forced : Нет

Текст
Идентификатор : 7
Формат : UTF-8
Идентификатор кодека : S_TEXT/UTF8
Идентификатор кодека/Информация : UTF-8 Plain Text
Заголовок : Full
Язык : English
Default : Нет
Forced : Нет

Меню
00:00:00.000 : en:Chapter 01
00:01:07.817 : en:Chapter 02
00:12:15.651 : en:Chapter 03
00:22:56.792 : en:Chapter 04
00:37:39.507 : en:Chapter 05
00:53:09.144 : en:Chapter 06
01:05:32.470 : en:Chapter 07
01:18:05.222 : en:Chapter 08
01:29:56.307 : en:Chapter 09








Релиз от: Rip by:
 
Не забывайте говорить Спасибо. Не уходите с раздачи!   
Торрент: Зарегистрирован [09 ноя 2018, 19:43] Скачать торрент
Скачать торрент
[ Размер 28.16 КБ / Просмотров 1 ]
Статус:
Проверен
 
.torrent скачан: 0 раз
Хэш: 455e58edb7572cb5a249461d0da2b4fba7bc4eb6
Размер: 10.86 ГБ (11 661 788 969 байт)
Стать Автором раздачи
 
 
Раздал: 100 ГБ
Скачал: 0 байт
Ратио: Seed.
Сообщения: 58386
Зарегистрирован: 31 мар 2015, 18:04


  • Похожие торренты
    Ответы
    Просмотры
    Последнее сообщение

Вернуться в Зарубежные фильмы 2006-2010 года

Ресурс не предоставляет электронные версии произведений, а занимается лишь коллекционированием и каталогизацией ссылок, присылаемых и публикуемых на форуме нашими читателями. Если вы являетесь правообладателем какого-либо представленного материала и не желаете чтобы ссылка на него находилась в нашем каталоге, свяжитесь с нами и мы незамедлительно удалим её. Файлы для обмена на трекере предоставлены пользователями сайта, и администрация не несёт ответственности за их содержание. Просьба не заливать файлы, защищенные авторскими правами, а также файлы нелегального содержания!
cron