Законопослушный гражданин / Law Abiding Citizen (2009) BDRemux 2160p от MediaClub | 4K | HDR | D

 
 Статистика раздачи 
Размер: 54.22 ГБ   |  Зарегистрирован: 09 ноя 2018, 13:58   |   .torrent скачан: 0 раз
Сидеров: 1  [ 0 байт/сек ]     Личеров: 0  [ 0 байт/сек ]  
  

Законопослушный гражданин / Law Abiding Citizen (2009) BDRemux 2160p от MediaClub | 4K | HDR | D

Сообщение graf_t » 10 ноя 2018, 00:00

Информация о фильме
Название: Законопослушный гражданин
Оригинальное название: Law Abiding Citizen
Год выхода: 2009
Жанр: Психологический триллер, драма, криминал
Режиссер: Ф. Гэри Грей
В ролях: Джейми Фокс, Джерард Батлер, Колм Мини, Брюс МакГилл, Лесли Бибб, Майкл Ирби, Грегори Итцин, Реджина Холл, Эмиральд Янг, Кристиан Столте

О фильме:
Окружной прокурор пошёл на сделку с преступниками и освободил их из тюрьмы. Тогда человек, чья жена и ребёнок погибли от рук убийц решает отомстить прокурору, совершив правосудие самостоятельно. Его ловят и сажают в тюрьму, но он неожиданно ставит ультиматум: он будет убивать, не выходя из-за решетки, если его требования не будут выполнены. Смешное заявление, но вскоре люди правда начинают гибнуть…

Страна: США
Студия: The Film Department, Warp Film, Evil Twins
Продолжительность: 01:49:16
Перевод: Дублированный

Файл
Кодек: H.265
Качество: BDRemux 2160p
Видео: HEVC HDR, 64.3 Mбит/с, 3840x2160, 23.976 кадр/с
Звук:
Русский (DTS, 6 ch, 1509 Кбит/с) / Дублированный (Blu-ray RUS)
Украинский (AC3, 6 ch, 384 Кбит/с) / Профессиональный многоголосый
Английский (TrueHD+Atmos, 8 ch, 4186 Кбит/c)
Английский (AC3, 6 ch, 640 Кбит/c)
Субтитры: Русские, английские

Семпл

General
Unique ID : 274531823590799526689187792943252332996 (0xCE88E7EDEAC149401FAC09BEB9C561C4)
Complete name : C:UsersPublicVideosSample VideosFilmyLaw.Abiding.Citizen.2009.BDRemux.2160p.HDR.MediaClub.mkv
Format : Matroska
Format version : Version 4
File size : 54.2 GiB
Duration : 1 h 49 min
Overall bit rate mode : Variable
Overall bit rate : 71.0 Mb/s
Encoded date : UTC 2018-11-09 08:12:31
Writing application : mkvmerge v28.2.0 ('The Awakening') 64-bit
Writing library : libebml v1.3.6 + libmatroska v1.4.9
Cover : Yes
Attachments : cover.jpg

Video
ID : 1
Format : HEVC
Format/Info : High Efficiency Video Coding
Commercial name : HDR10
Format profile : Main 10@L5.1@High
Codec ID : V_MPEGH/ISO/HEVC
Duration : 1 h 49 min
Bit rate : 64.3 Mb/s
Width : 3 840 pixels
Height : 2 160 pixels
Display aspect ratio : 16:9
Frame rate mode : Constant
Frame rate : 23.976 (24000/1001) FPS
Color space : YUV
Chroma subsampling : 4:2:0 (Type 2)
Bit depth : 10 bits
Bits/(Pixel*Frame) : 0.323
Stream size : 49.0 GiB (90%)
Title : BDRemux.2160p.HDR by Silverok
Default : Yes
Forced : No
Color range : Limited
Color primaries : BT.2020
Transfer characteristics : PQ
Matrix coefficients : BT.2020 non-constant
Mastering display color primaries : Display P3
Mastering display luminance : min: 0.0001 cd/m2, max: 1000 cd/m2
Maximum Content Light Level : 1000 cd/m2
Maximum Frame-Average Light Level : 313 cd/m2

Audio #1
ID : 2
Format : DTS
Format/Info : Digital Theater Systems
Codec ID : A_DTS
Duration : 1 h 48 min
Bit rate mode : Constant
Bit rate : 1 510 kb/s
Channel(s) : 6 channels
Channel layout : C L R Ls Rs LFE
Sampling rate : 48.0 kHz
Frame rate : 93.750 FPS (512 SPF)
Bit depth : 24 bits
Compression mode : Lossy
Stream size : 1.15 GiB (2%)
Title : Дублированный (Blu-ray RUS)
Language : Russian
Default : No
Forced : No

Audio #2
ID : 3
Format : AC-3
Format/Info : Audio Coding 3
Commercial name : Dolby Digital
Codec ID : A_AC3
Duration : 1 h 48 min
Bit rate mode : Constant
Bit rate : 384 kb/s
Channel(s) : 6 channels
Channel layout : L R C LFE Ls Rs
Sampling rate : 48.0 kHz
Frame rate : 31.250 FPS (1536 SPF)
Bit depth : 16 bits
Compression mode : Lossy
Stream size : 298 MiB (1%)
Title : Профессиональный многоголосый
Language : Ukrainian
Service kind : Complete Main
Default : No
Forced : No

Audio #3
ID : 4
Format : MLP FBA 16-ch
Format/Info : Meridian Lossless Packing FBA with 16-channel presentation
Commercial name : Dolby TrueHD with Dolby Atmos
Codec ID : A_TRUEHD
Duration : 1 h 49 min
Bit rate mode : Variable
Bit rate : 4 186 kb/s
Maximum bit rate : 7 701 kb/s
Channel(s) : 8 channels
Channel layout : L R C LFE Ls Rs Lb Rb
Sampling rate : 48.0 kHz
Frame rate : 1 200.000 FPS (40 SPF)
Compression mode : Lossless
Stream size : 3.20 GiB (6%)
Language : English
Default : No
Forced : No
Number of dynamic objects : 15
Bed channel count : 1 channel
Bed channel configuration : LFE

Audio #4
ID : 5
Format : AC-3
Format/Info : Audio Coding 3
Commercial name : Dolby Digital
Codec ID : A_AC3
Duration : 1 h 49 min
Bit rate mode : Constant
Bit rate : 640 kb/s
Channel(s) : 6 channels
Channel layout : L R C LFE Ls Rs
Sampling rate : 48.0 kHz
Frame rate : 31.250 FPS (1536 SPF)
Bit depth : 16 bits
Compression mode : Lossy
Stream size : 500 MiB (1%)
Language : English
Service kind : Complete Main
Default : No
Forced : No

Text #1
ID : 6
Format : UTF-8
Codec ID : S_TEXT/UTF8
Codec ID/Info : UTF-8 Plain Text
Duration : 1 h 37 min
Bit rate : 95 b/s
Count of elements : 1211
Stream size : 68.5 KiB (0%)
Title : Full
Language : Russian
Default : Yes
Forced : No

Text #2
ID : 7
Format : UTF-8
Codec ID : S_TEXT/UTF8
Codec ID/Info : UTF-8 Plain Text
Duration : 1 h 37 min
Bit rate : 59 b/s
Count of elements : 1261
Stream size : 42.7 KiB (0%)
Title : Full
Language : English
Default : No
Forced : No

Menu
00:00:00.000 : en:Home Invasion
00:03:33.422 : en:What You Can Prove in Court
00:10:50.358 : en:Lethal Injection
00:18:21.976 : en:You Can't Fight Fate
00:26:36.553 : en:Taken Into Custody
00:37:16.359 : en:Make the Deal
00:40:43.358 : en:Contempt of Court
00:47:08.367 : en:Steak with All the Trimmings
00:55:08.180 : en:Born Tactician
01:02:50.934 : en:This Broken Thing
01:11:49.263 : en:It's Gonna Be Biblical
01:16:25.873 : en:City Under Siege
01:23:52.903 : en:Subterranean Passage
01:28:44.694 : en:Center of Gravity
01:33:57.590 : en:I Don't Make Deals with Murderers
01:41:30.418 : en:End Credits


Релиз от: | Silverok
 
Не забывайте говорить Спасибо. Не уходите с раздачи!   
Торрент: Зарегистрирован [09 ноя 2018, 13:58] Скачать торрент
Скачать торрент
[ Размер 136.46 КБ / Просмотров 4 ]
Статус:
Проверен
 
.torrent скачан: 0 раз
Хэш: 2350a1f07b579930c14b830e76e99831dc8491d7
Размер: 54.22 ГБ (58 223 232 899 байт)
Стать Автором раздачи
 
 
Раздал: 100 ГБ
Скачал: 0 байт
Ратио: Seed.
Сообщения: 58375
Зарегистрирован: 31 мар 2015, 18:04


  • Похожие торренты
    Ответы
    Просмотры
    Последнее сообщение

Вернуться в Зарубежные фильмы 2006-2010 года

Ресурс не предоставляет электронные версии произведений, а занимается лишь коллекционированием и каталогизацией ссылок, присылаемых и публикуемых на форуме нашими читателями. Если вы являетесь правообладателем какого-либо представленного материала и не желаете чтобы ссылка на него находилась в нашем каталоге, свяжитесь с нами и мы незамедлительно удалим её. Файлы для обмена на трекере предоставлены пользователями сайта, и администрация не несёт ответственности за их содержание. Просьба не заливать файлы, защищенные авторскими правами, а также файлы нелегального содержания!
cron