Путь клинка / Stiletto (2008) BDRip 1080p | P

 
 Статистика раздачи 
Размер: 8.56 ГБ   |  Зарегистрирован: 08 ноя 2018, 17:13   |   .torrent скачан: 0 раз
Сидеров: 1  [ 0 байт/сек ]     Личеров: 0  [ 0 байт/сек ]  
  

Путь клинка / Stiletto (2008) BDRip 1080p | P

Сообщение graf_t » 09 ноя 2018, 01:03

Информация о фильме
Название: Путь клинка
Оригинальное название: Stiletto
Год выхода: 2008
Жанр: Боевик, триллер, драма, криминал
Режиссер: Ник Валлелонга
В ролях: Стана Катич, Том Беренджер, Пол Слоун, Майкл Бин, Уильям Форсайт, Келли Ху, Аманда Брукс, Дайан Венора, Тони Лип, Джеймс Руссо, Том Сайзмор, Доминик Суэйн, Д.Б. Суини, Дэвид Провэл, Эфрен Фижюра, Джесси Корти, Роберт Р. Шафер, Крис Нельсон, Мишель Ломбардо, Бар Пали, Уоррен Остергард, Гэри Приват, Коллин Порш, Авриэль Корти, Джесси Дэвид Корти, Дженнифер Спаркс

О фильме:
Детектив расследует ряд, на первый взгляд, случайных убийств. Эти преступления озадачивают и богатого греческого мафиози, он подозревает, что в них замешана его любовница, русская девушка по имени Раина. Женщина подставляет под удар конкурентов «организацию» своего друга и оставляет много улик сыщику, идущему по пятам.



Страна: США
Студия: TinRes Entertainment, Vallelonga Productions
Продолжительность: 01:39:19
Перевод: Профессиональный многоголосый | Cтудия "Велес" по заказу "CP Digital"

Файл
Кодек: x.264
Качество: BDRip 1080p
Видео: MPEG-4 AVC, 1920x816, 11.4 Mбит/с, 23.976 кадр/с
Аудио #1: Русский ( АС3, 6ch, 448 Кбит/с, 48.0 KHz) Профессиональный (многоголосый, закадровый) Cтудия "Велес" по заказу "CP Digital"
Аудио #2: Английский ( АС3, 6ch, 448 Кбит/с, 48.0 KHz)
Субтитры: русские, английские
Источник: Stiletto.2008.UNCUT.1080p.BluRay.x264-CREEPSHOW
General
Unique ID : 237269963685841562514701365337751051588 (0xB28088655C090E45A0FA504749745D44)
Complete name : Stiletto.2008.UNCUT.BDRip.1080p.mkv
Format : Matroska
Format version : Version 4
File size : 8.56 GiB
Duration : 1 h 39 min
Overall bit rate : 12.3 Mb/s
Encoded date : UTC 2018-11-07 23:25:35
Writing application : mkvmerge v7.1.0 ('Good Love') 64bit built on Jul 27 2014 13:06:55
Writing library : libebml v1.3.0 + libmatroska v1.4.1

Video
ID : 1
Format : AVC
Format/Info : Advanced Video Codec
Format profile : High@L4.1
Format settings : CABAC / 5 Ref Frames
Format settings, CABAC : Yes
Format settings, ReFrames : 5 frames
Codec ID : V_MPEG4/ISO/AVC
Duration : 1 h 39 min
Bit rate : 11.4 Mb/s
Width : 1 920 pixels
Height : 816 pixels
Display aspect ratio : 2.35:1
Frame rate mode : Constant
Frame rate : 23.976 (24000/1001) FPS
Color space : YUV
Chroma subsampling : 4:2:0
Bit depth : 8 bits
Scan type : Progressive
Bits/(Pixel*Frame) : 0.305
Stream size : 7.93 GiB (93%)
Writing library : x264 core 146 r2538 121396c
Encoding settings : cabac=1 / ref=5 / deblock=1:-2:-2 / analyse=0x3:0x133 / me=umh / subme=9 / psy=1 / psy_rd=1.00:0.00 / mixed_ref=1 / me_range=16 / chroma_me=1 / trellis=1 / 8x8dct=1 / cqm=0 / deadzone=21,11 / fast_pskip=0 / chroma_qp_offset=-2 / threads=6 / lookahead_threads=1 / sliced_threads=0 / nr=0 / decimate=1 / interlaced=0 / bluray_compat=0 / constrained_intra=0 / bframes=3 / b_pyramid=2 / b_adapt=1 / b_bias=0 / direct=1 / weightb=1 / open_gop=0 / weightp=2 / keyint=250 / keyint_min=23 / scenecut=40 / intra_refresh=0 / rc_lookahead=40 / rc=2pass / mbtree=1 / bitrate=11445 / ratetol=1.0 / qcomp=0.60 / qpmin=0 / qpmax=69 / qpstep=4 / cplxblur=20.0 / qblur=0.5 / ip_ratio=1.40 / aq=1:1.00
Language : English
Default : Yes
Forced : No

Audio #1
ID : 2
Format : AC-3
Format/Info : Audio Coding 3
Commercial name : Dolby Digital
Codec ID : A_AC3
Duration : 1 h 39 min
Bit rate mode : Constant
Bit rate : 448 kb/s
Channel(s) : 6 channels
Channel layout : L R C LFE Ls Rs
Sampling rate : 48.0 kHz
Frame rate : 31.250 FPS (1536 SPF)
Bit depth : 16 bits
Compression mode : Lossy
Stream size : 318 MiB (4%)
Language : Russian
Service kind : Complete Main
Default : Yes
Forced : No

Audio #2
ID : 3
Format : AC-3
Format/Info : Audio Coding 3
Commercial name : Dolby Digital
Codec ID : A_AC3
Duration : 1 h 39 min
Bit rate mode : Constant
Bit rate : 448 kb/s
Channel(s) : 6 channels
Channel layout : L R C LFE Ls Rs
Sampling rate : 48.0 kHz
Frame rate : 31.250 FPS (1536 SPF)
Bit depth : 16 bits
Compression mode : Lossy
Stream size : 318 MiB (4%)
Language : English
Service kind : Complete Main
Default : No
Forced : No

Text #1
ID : 4
Format : UTF-8
Codec ID : S_TEXT/UTF8
Codec ID/Info : UTF-8 Plain Text
Duration : 1 h 32 min
Bit rate : 73 b/s
Count of elements : 987
Stream size : 49.7 KiB (0%)
Language : Russian
Default : No
Forced : No

Text #2
ID : 5
Format : UTF-8
Codec ID : S_TEXT/UTF8
Codec ID/Info : UTF-8 Plain Text
Duration : 1 h 39 min
Bit rate : 47 b/s
Count of elements : 1143
Stream size : 34.5 KiB (0%)
Language : English
Default : No
Forced : No

Menu
00:00:00.000 : en:00:00:00.000
00:07:16.227 : en:00:07:16.227
00:15:12.453 : en:00:15:12.453
00:22:20.381 : en:00:22:20.381
00:32:45.213 : en:00:32:45.213
00:43:29.690 : en:00:43:29.690
00:48:19.188 : en:00:48:19.188
00:55:30.661 : en:00:55:30.661
01:07:13.655 : en:01:07:13.655
01:17:36.360 : en:01:17:36.360
01:25:21.742 : en:01:25:21.742
01:33:05.371 : en:01:33:05.371
 
Не забывайте говорить Спасибо. Не уходите с раздачи!   
Торрент: Зарегистрирован [08 ноя 2018, 17:13] Скачать торрент
Скачать торрент
[ Размер 22.84 КБ / Просмотров 1 ]
Статус:
Проверен
 
.torrent скачан: 0 раз
Хэш: 20f6b420e149df3302fabbc27d3b55f7884f47c4
Размер: 8.56 ГБ (9 187 100 940 байт)
Стать Автором раздачи
 
 
Раздал: 100 ГБ
Скачал: 0 байт
Ратио: Seed.
Сообщения: 58375
Зарегистрирован: 31 мар 2015, 18:04


  • Похожие торренты
    Ответы
    Просмотры
    Последнее сообщение

Вернуться в Зарубежные фильмы 2006-2010 года

Ресурс не предоставляет электронные версии произведений, а занимается лишь коллекционированием и каталогизацией ссылок, присылаемых и публикуемых на форуме нашими читателями. Если вы являетесь правообладателем какого-либо представленного материала и не желаете чтобы ссылка на него находилась в нашем каталоге, свяжитесь с нами и мы незамедлительно удалим её. Файлы для обмена на трекере предоставлены пользователями сайта, и администрация не несёт ответственности за их содержание. Просьба не заливать файлы, защищенные авторскими правами, а также файлы нелегального содержания!
cron