Головар (2018) WEB-DLRip-AVC

 
 Статистика раздачи 
Размер: 1.78 ГБ   |  Зарегистрирован: 01 ноя 2018, 11:47   |   .torrent скачан: 0 раз
Сидеров: 1  [ 0 байт/сек ]     Личеров: 0  [ 0 байт/сек ]  
  

Головар (2018) WEB-DLRip-AVC

Сообщение Nasty » 02 ноя 2018, 12:14

Информация о фильме
Название: Головар
Год выхода: 2018
Жанр: Драма, криминал
Режиссер: Юрий Ботоев
В ролях: Владимир Банчиков, Светлана Полянская, Владимир Барташевич, Артур Шувалов, Владимир Срабионов, Рина Жеребко, Алексей Туробов, Игорь Озеров, Владислав Самарин, Елена Ершова

О фильме: Налаженная жизнь, успешный нефритовый бизнес — все это было, пока главный герой не попал в ситуацию, которая поглотила его и всю его семью в трагические обстоятельства. Человек, который, казалось бы, может купить все, что угодно, в том, числе власть, оказывается бессилен перед чередой случайных событий. Потеряв, близкого человека, он решается на отчаянный шаг.



Страна: Россия / M55
Продолжительность: 01:32:17
Перевод: Не требуется

Файл
Качество: WEB-DLRip-AVC
Формат: MKV
Видео: MPEG-4 AVC/H.264, 2600 Кбит/сек, 1024x426
Звук: AC3, 2 ch, 192 Кбит/сек
Субтитры: нет

СЕМПЛ
Общее
Уникальный идентификатор : 228459085004031159397139465834967426540 (0xABDF9E89A2CAB6A6A3D5739F59FD65EC)
Полное имя : F:Диск1. ФИЛЬМЫГоловар (2018)Golovar (2018) WEBDLRip-AVC.mkv
Формат : Matroska
Версия формата : Version 4
Размер файла : 1,78 Гбайт
Продолжительность : 1 ч. 32 м.
Общий поток : 2756 Кбит/сек
Программа кодирования : XviD4PSP 7.0.457 DAILY
Библиотека кодирования : Lavf57.71.100
ErrorDetectionType : Per level 1
Attachments : poster.jpg
ENCODING_INFO : MATROSKA,WEBM > MKV Пользовательский / VP9 > X264 ABR 2600kbps HQ / VORBIS > AC3 CBR 192kbps
Язык : und

Видео
Идентификатор : 1
Формат : AVC
Формат/Информация : Advanced Video Codec
Профиль формата : High@L4.1
Настройки формата : CABAC / 10 Ref Frames
Параметр CABAC формата : Да
Параметр RefFrames формата : 10 кадров
Идентификатор кодека : V_MPEG4/ISO/AVC
Продолжительность : 1 ч. 32 м.
Битрейт : 2600 Кбит/сек
Ширина : 1024 пикселя
Высота : 426 пикселей
Соотношение сторон : 2,40:1
Режим частоты кадров : Постоянный
Частота кадров : 23,976 (24000/1001) кадра/сек
Цветовое пространство : YUV
Субдискретизация насыщенности : 4:2:0
Битовая глубина : 8 бит
Тип развёртки : Прогрессивная
Бит/(Пиксели*Кадры) : 0.249
Размер потока : 1,62 Гбайт (91%)
Библиотека кодирования : x264 core 155 r2901M 7d0ff22
Настройки программы : cabac=1 / ref=10 / deblock=1:-3:-3 / analyse=0x3:0x133 / me=umh / subme=10 / psy=1 / psy_rd=1.00:0.20 / mixed_ref=1 / me_range=16 / chroma_me=1 / trellis=2 / 8x8dct=1 / cqm=0 / deadzone=21,11 / fast_pskip=1 / chroma_qp_offset=-3 / threads=11 / lookahead_threads=1 / sliced_threads=0 / nr=0 / decimate=1 / interlaced=0 / bluray_compat=0 / constrained_intra=0 / bframes=10 / b_pyramid=2 / b_adapt=1 / b_bias=10 / direct=1 / weightb=1 / open_gop=0 / weightp=1 / keyint=240 / keyint_min=24 / scenecut=40 / intra_refresh=0 / rc_lookahead=40 / rc=abr / mbtree=1 / bitrate=2600 / ratetol=1.0 / qcomp=0.60 / qpmin=0 / qpmax=69 / qpstep=4 / ip_ratio=1.40 / aq=1:1.00
Default : Да
Forced : Нет
Цветовой диапазон : Limited
Основные цвета : BT.709
Характеристики трансфера : BT.709
Коэффициенты матрицы : BT.709

Аудио
Идентификатор : 2
Формат : AC-3
Формат/Информация : Audio Coding 3
Коммерческое название : Dolby Digital
Идентификатор кодека : A_AC3
Продолжительность : 1 ч. 32 м.
Вид битрейта : Постоянный
Битрейт : 192 Кбит/сек
Каналы : 2 канала
Channel layout : L R
Частота : 44,1 КГц
Частота кадров : 28,711 кадров/сек (1536 SPF)
Битовая глубина : 16 бит
Метод сжатия : С потерями
Размер потока : 127 Мбайт (7%)
Default : Да
Forced : Нет
 
Не забывайте говорить Спасибо. Не уходите с раздачи!   
Торрент: Зарегистрирован [01 ноя 2018, 11:47] Скачать торрент
Скачать торрент
[ Размер 18.78 КБ / Просмотров 1 ]
Статус:
Проверен
 
.torrent скачан: 0 раз
Хэш: 399aa80932463271eb2ed6ed42d0f3ddb86f6a7b
Размер: 1.78 ГБ (1 907 243 169 байт)
Стать Автором раздачи
 
 
Раздал: 100 ГБ
Скачал: 0 байт
Ратио: Seed.
Сообщения: 31121
Зарегистрирован: 09 апр 2015, 19:56


  • Похожие торренты
    Ответы
    Просмотры
    Последнее сообщение

Вернуться в Отечественное кино

Ресурс не предоставляет электронные версии произведений, а занимается лишь коллекционированием и каталогизацией ссылок, присылаемых и публикуемых на форуме нашими читателями. Если вы являетесь правообладателем какого-либо представленного материала и не желаете чтобы ссылка на него находилась в нашем каталоге, свяжитесь с нами и мы незамедлительно удалим её. Файлы для обмена на трекере предоставлены пользователями сайта, и администрация не несёт ответственности за их содержание. Просьба не заливать файлы, защищенные авторскими правами, а также файлы нелегального содержания!
cron