Владыка времени (2015) WEB-DLRip от Portablius

 
 Статистика раздачи 
Размер: 745.74 МБ   |  Зарегистрирован: 31 окт 2018, 13:28   |   .torrent скачан: 0 раз
Сидеров: 1  [ 0 байт/сек ]     Личеров: 0  [ 0 байт/сек ]  
  

Владыка времени (2015) WEB-DLRip от Portablius

Сообщение Nasty » 31 окт 2018, 15:01

Информация о фильме
Название: Владыка времени
Год выхода: 2015
Жанр: фэнтези, приключения
Режиссер: Александр Баршак
В ролях: Андрей Смоляков, Кирилл Ермичев, Станислав Тикунов, Виктория Заболотная, Рина Гришина, Сергей Сосновский, Виталий Вашедский, Максим Юдин, Александр Числов (юродливый), Денис Гуторов (Денис, бармен)

О фильме: В секретной Школе на протяжении нескольких лет готовят четверых «универсальных солдат» в возрасте от 18 до 20 лет. Они должны переместиться в эпоху Царя Ивана Грозного и предотвратить трагическую смерть его старшего сына Ивана, случившуюся 16-го ноября 1581 года. Таким образом, будет нарушен ход исторических событий. Царевич станет следующим Царём. Не будет Великой смуты, польской интервенции, не придут к власти Романовы, а следовательно удастся избежать революции 1917 года и Россия станет совершенно иным государством.



Страна: Россия
Продолжительность: 01:32:15
Перевод: Не требуется
Субтитры: Нет

Файл
Кодек: XviD
Качество: WEB-DLRip
Видео: 720x304 (2.37:1), 25 fps, XviD build 73 ~992 kbps avg, 0.18 bit/pixel
Звук: 48 kHz, MPEG Layer 3, 2 ch, ~128.00 kbps avg

General
Complete name : Vladyka.Vremeni.2015.WEB-DLRip.Portablius.avi
Format : AVI
Format/Info : Audio Video Interleave
File size : 746 MiB
Duration : 1 h 32 min
Overall bit rate : 1 130 kb/s
Writing application : VirtualDubMod 1.5.10.3 | www.virtualdub-fr.org || (build 2550/release)
Writing library : VirtualDubMod build 2550/release

Video
ID : 0
Format : MPEG-4 Visual
Format profile : Advanced Simple@L5
Format settings, BVOP : 1
Format settings, QPel : No
Format settings, GMC : No warppoints
Format settings, Matrix : Custom
Codec ID : XVID
Codec ID/Hint : XviD
Duration : 1 h 32 min
Bit rate : 992 kb/s
Width : 720 pixels
Height : 304 pixels
Display aspect ratio : 2.35:1
Frame rate : 25.000 FPS
Color space : YUV
Chroma subsampling : 4:2:0
Bit depth : 8 bits
Scan type : Progressive
Compression mode : Lossy
Bits/(Pixel*Frame) : 0.181
Stream size : 655 MiB (88%)
Writing library : XviD 73

Audio
ID : 1
Format : MPEG Audio
Format version : Version 1
Format profile : Layer 3
Codec ID : 55
Codec ID/Hint : MP3
Duration : 1 h 32 min
Bit rate mode : Constant
Bit rate : 128 kb/s
Channel(s) : 2 channels
Sampling rate : 48.0 kHz
Compression mode : Lossy
Stream size : 84.5 MiB (11%)
Alignment : Aligned on interleaves
Interleave, duration : 40 ms (1.00 video frame)
Interleave, preload duratio : 504 ms
Writing library : LAME3.99r
Encoding settings : -m s -V 4 -q 2 -lowpass 17 -b 128

 
Не забывайте говорить Спасибо. Не уходите с раздачи!   
Торрент: Зарегистрирован [31 окт 2018, 13:28] Скачать торрент
Скачать торрент
[ Размер 15.45 КБ / Просмотров 0 ]
Статус:
Проверен
 
.torrent скачан: 0 раз
Хэш: 3bacaea4af2a50d46154996e766a934927f0f132
Размер: 745.74 МБ (781 961 216 байт)
Стать Автором раздачи
 
 
Раздал: 100 ГБ
Скачал: 0 байт
Ратио: Seed.
Сообщения: 31032
Зарегистрирован: 09 апр 2015, 19:56


  • Похожие торренты
    Ответы
    Просмотры
    Последнее сообщение

Вернуться в Отечественные фильмы 2011 - 2015 года

Ресурс не предоставляет электронные версии произведений, а занимается лишь коллекционированием и каталогизацией ссылок, присылаемых и публикуемых на форуме нашими читателями. Если вы являетесь правообладателем какого-либо представленного материала и не желаете чтобы ссылка на него находилась в нашем каталоге, свяжитесь с нами и мы незамедлительно удалим её. Файлы для обмена на трекере предоставлены пользователями сайта, и администрация не несёт ответственности за их содержание. Просьба не заливать файлы, защищенные авторскими правами, а также файлы нелегального содержания!
cron