Автоспорт. Blancpain GT series 2018 [10 этапов из 10] (2018) HDTVRip 720p | P1

 
 Статистика раздачи 
Размер: 52.62 ГБ   |  Зарегистрирован: 15 окт 2018, 11:27   |   .torrent скачан: 0 раз
Сидеров: 1  [ 0 байт/сек ]     Личеров: 0  [ 0 байт/сек ]  
  

Автоспорт. Blancpain GT series 2018 [10 этапов из 10] (2018) HDTVRip 720p | P1

Сообщение aLaVodka » 30 окт 2018, 09:55

Информация о фильме
Название: Автоспорт. Blancpain GT series 2018
Год выхода: 2018
Вид спорта: Автоспорт
Жанр: Гоноки GT

О фильме:
Всё плохо? Возможно, но только не в чемпионате Blancpain GT Series. Заявочные листы на стартовые этапы Sprint и Endurance – это бомба! В гонках GT всё больше и больше топ-пилотов, которые не гоняются в «открытых колёсах» по исключительно финансовым причинам. Существует, правда, довольно приличная «текучка кадров»: не все команды и пилоты выступают на полном расписании. Поэтому имеет смысл следить за заявочными листами на сайте организаторов.
Про пилотов и их регалии можно говорить долго, но одна из главных, если не главная, прелесть гонок GT – техника. Автомобили категории GT, которые принимают участие в серии, красивы. Этого вполне достаточно, потому что, эстетическая составляющая – важнейшая в автоспорте. Более того, они красивы по-разному. Быстры они тоже по-разному. Пресловутый Balance of Performance (дословно: баланс характеристик/показателей, более распространённый термин - баланс технологий) позволяет совершенно разным автомобилям, каждый из которых имеет сильные и слабые стороны, быть близкими по скорости на круге. Какой-то марке больше подходит один тип трасс, какой-то – другой. Да что там трасс, секторов! Проще говоря, машины одинаково быстры, но быстры в разных местах. Как только кто-то начинает заметно опережать других, сразу принимаются меры. Кому-то подобные правила могут прийтись не по вкусу, но они работают. Так же, как они работают и в чемпионате WEC, переживающем небывалую популярность, которая явно не достигла своего пика. Как результат мы имеем много борьбы на трассе и довольно плотный чемпионат в целом. Надо сказать, что соревнования под флагом WEC и Blancpain GT образуют своего рода синергию, продвигая концепт гонок спорткаров и на выносливость в принципе.
Канал: Eurosport
Продолжительность: ~01:00:00 один выпуск
Перевод: Профессиональный одноголосый закадровый

Файл
Кодек: AVC
Качество: HDTVRip 720p
Видео: 1280x720 (16:9); 50 fps; ~5 Mbps
Аудио 1: AAC; 48KHz; 2ch; 192 Kbps [Русский]
Аудио 2: AAC; 48KHz; 2ch; 192 Kbps [English]

General
Complete name : /home/roma/Відео/Blancpain GT/Blancpain_GT_Series_Endurance_Cup.2018/BSEC.2018.Round4.24h.of.Spa/BSEC.2018.Round4.24h.of.Spa.Race.Part1.mp4
Format : MPEG-4
Format profile : Base Media / Version 2
Codec ID : mp42 (isom/iso2/avc1/mp41)
File size : 2.82 GiB
Duration : 1 h 15 min
Overall bit rate mode : Variable
Overall bit rate : 5 379 kb/s
Encoded date : UTC 2018-07-28 16:09:48
Tagged date : UTC 2018-07-28 16:09:48
Writing application : HandBrake 0.10.5 2016021100

Video
ID : 1
Format : AVC
Format/Info : Advanced Video Codec
Format profile : Main@L4
Format settings : CABAC / 4 Ref Frames
Format settings, CABAC : Yes
Format settings, ReFrames : 4 frames
Codec ID : avc1
Codec ID/Info : Advanced Video Coding
Duration : 1 h 15 min
Bit rate : 5 000 kb/s
Width : 1 280 pixels
Height : 720 pixels
Display aspect ratio : 16:9
Frame rate mode : Variable
Frame rate : 50.000 FPS
Minimum frame rate : 16.667 FPS
Maximum frame rate : 55.866 FPS
Color space : YUV
Chroma subsampling : 4:2:0
Bit depth : 8 bits
Scan type : Progressive
Bits/(Pixel*Frame) : 0.109
Stream size : 2.61 GiB (93%)
Writing library : x264 core 142 r2479 dd79a61
Encoding settings : cabac=1 / ref=1 / deblock=1:0:0 / analyse=0x1:0x111 / me=hex / subme=2 / psy=1 / psy_rd=1.00:0.00 / mixed_ref=0 / me_range=16 / chroma_me=1 / trellis=0 / 8x8dct=0 / cqm=0 / deadzone=21,11 / fast_pskip=1 / chroma_qp_offset=0 / threads=6 / lookahead_threads=2 / sliced_threads=0 / nr=0 / decimate=1 / interlaced=0 / bluray_compat=0 / constrained_intra=0 / bframes=3 / b_pyramid=2 / b_adapt=1 / b_bias=0 / direct=1 / weightb=1 / open_gop=0 / weightp=1 / keyint=250 / keyint_min=25 / scenecut=40 / intra_refresh=0 / rc_lookahead=10 / rc=abr / mbtree=1 / bitrate=5000 / ratetol=1.0 / qcomp=0.60 / qpmin=0 / qpmax=69 / qpstep=4 / vbv_maxrate=20000 / vbv_bufsize=25000 / nal_hrd=none / filler=0 / ip_ratio=1.40 / aq=1:1.00
Encoded date : UTC 2018-07-28 16:09:48
Tagged date : UTC 2018-07-28 16:09:48
Color range : Limited
Color primaries : BT.709
Transfer characteristics : BT.709
Matrix coefficients : BT.709
Codec configuration box : avcC

Audio #1
ID : 2
Format : AAC LC
Format/Info : Advanced Audio Codec Low Complexity
Codec ID : mp4a-40-2
Duration : 1 h 15 min
Bit rate mode : Variable
Bit rate : 192 kb/s
Channel(s) : 2 channels
Channel layout : L R
Sampling rate : 48.0 kHz
Frame rate : 46.875 FPS (1024 SPF)
Compression mode : Lossy
Stream size : 103 MiB (4%)
Title : Stereo / Stereo
Language : Russian
Default : Yes
Alternate group : 1
Encoded date : UTC 2018-07-28 16:09:48
Tagged date : UTC 2018-07-28 16:09:48

Audio #2
ID : 3
Format : AAC LC
Format/Info : Advanced Audio Codec Low Complexity
Codec ID : mp4a-40-2
Duration : 1 h 15 min
Bit rate mode : Variable
Bit rate : 192 kb/s
Channel(s) : 2 channels
Channel layout : L R
Sampling rate : 48.0 kHz
Frame rate : 46.875 FPS (1024 SPF)
Compression mode : Lossy
Stream size : 103 MiB (4%)
Title : Stereo / Stereo
Language : English
Default : No
Alternate group : 1
Encoded date : UTC 2018-07-28 16:09:48
Tagged date : UTC 2018-07-28 16:09:48

Автор рипа/записи: FOX
 
Не забывайте говорить Спасибо. Не уходите с раздачи!   
Торрент: Зарегистрирован [15 окт 2018, 11:27] Скачать торрент
Скачать торрент
[ Размер 530.15 КБ / Просмотров 0 ]
Статус:
Проверен
 
.torrent скачан: 0 раз
Хэш: 22da2725e495088a154d431c3c553ad84680f8c2
Размер: 52.62 ГБ (56 494 971 683 байт)
Стать Автором раздачи
 
 
Раздал: 100 ГБ
Скачал: 0 байт
Ратио: Seed.
Сообщения: 190832
Зарегистрирован: 09 апр 2015, 20:00


  • Похожие торренты
    Ответы
    Просмотры
    Последнее сообщение

Вернуться в Спорт и здоровье (Спортивные турниры, фильмы и передачи etc)

Ресурс не предоставляет электронные версии произведений, а занимается лишь коллекционированием и каталогизацией ссылок, присылаемых и публикуемых на форуме нашими читателями. Если вы являетесь правообладателем какого-либо представленного материала и не желаете чтобы ссылка на него находилась в нашем каталоге, свяжитесь с нами и мы незамедлительно удалим её. Файлы для обмена на трекере предоставлены пользователями сайта, и администрация не несёт ответственности за их содержание. Просьба не заливать файлы, защищенные авторскими правами, а также файлы нелегального содержания!
cron