Автоспорт. Verizon IndyCar Series. Этапы [01-17 из 17] (2018) HDTVRip 720p от Ales | P1

 
 Статистика раздачи 
Размер: 104.66 ГБ   |  Зарегистрирован: 26 сен 2018, 08:05   |   .torrent скачан: 0 раз
Сидеров: 1  [ 0 байт/сек ]     Личеров: 0  [ 0 байт/сек ]  
  

Автоспорт. Verizon IndyCar Series. Этапы [01-17 из 17] (2018) HDTVRip 720p от Ales | P1

Сообщение aLaVodka » 30 окт 2018, 09:54

Информация о фильме
Название: Verizon IndyCar Series
Год выхода: 2018
Канал: Viasat Sport HD
Комментарий: Сергей Беднарук, Английский

О фильме:
Verizon IndyCar Series — это наиболее статусная серия гонок на машинах с открытыми колёсами в Северной Америке.
Чемпионат был создан в 1994 году владельцем «Индианаполис Мотор Спидвей» Тони Джорджем как более дешёвая и полностью американская альтернатива серии CART.
Чемпионат проводится с 1996 года. В первые годы существования вплоть до 2002 года серия именовалась как IRL (Indy Racing League). В 2008 году серия поглотила серию Champ Car и стала единственной подобной серией в Северной Америке.
Страна: США
Продолжительность: ~03:00:00 один выпуск
Перевод: Профессиональный одноголосый закадровый

Файл
Кодек: H264
Качество: HDTVRip 720p
Видео: 1280x720P, 50 кадр/c, 4 000 kb/s
Аудио 1: MP2, 192 кб/с (2 ch) [Сергей Беднарук]
Аудио 2: MP2, 192 кб/с (2 ch) [Английский]

General
Unique ID : 246921985942161709266333666314006629664 (0xB9C371D596BF6939882713A657E90D20)
Complete name : E:Indycar2018Indycar2018.R10.KOHLER.Race.Viasat.Sport.HD.720P.Rus.Eng.mkv
Format : Matroska
Format version : Version 4 / Version 2
File size : 5.51 GiB
Duration : 2 h 59 min
Overall bit rate : 4 387 kb/s
Encoded date : UTC 2018-06-24 23:46:03
Writing application : mkvmerge v9.1.0 ('Little Earthquakes') 64bit
Writing library : libebml v1.3.3 + libmatroska v1.4.4

Video
ID : 1
Format : AVC
Format/Info : Advanced Video Codec
Format profile : High@L3.2
Format settings : 4 Ref Frames
Format settings, CABAC : No
Format settings, RefFrames : 4 frames
Codec ID : V_MPEG4/ISO/AVC
Duration : 2 h 59 min
Bit rate : 4 000 kb/s
Width : 1 280 pixels
Height : 720 pixels
Display aspect ratio : 16:9
Frame rate mode : Constant
Frame rate : 50.000 FPS
Color space : YUV
Chroma subsampling : 4:2:0
Bit depth : 8 bits
Scan type : Progressive
Bits/(Pixel*Frame) : 0.087
Stream size : 5.03 GiB (91%)
Writing library : x264 core 148 r2705kMod 3f5ed56
Encoding settings : cabac=0 / ref=1 / deblock=0:0:0 / analyse=0x3:0x113 / me=hex / subme=2 / psy=1 / fade_compensate=0.10 / psy_rd=1.00:0.00 / mixed_ref=0 / me_range=16 / chroma_me=1 / trellis=0 / 8x8dct=1 / cqm=0 / deadzone=21,11 / fast_pskip=1 / chroma_qp_offset=0 / threads=2 / lookahead_threads=1 / sliced_threads=0 / nr=0 / decimate=1 / interlaced=0 / bluray_compat=0 / constrained_intra=0 / fgo=0 / bframes=3 / b_pyramid=2 / b_adapt=1 / b_bias=0 / direct=1 / weightb=0 / open_gop=0 / weightp=0 / keyint=250 / keyint_min=25 / scenecut=40 / intra_refresh=0 / rc_lookahead=10 / rc=abr / mbtree=1 / bitrate=4000 / ratetol=1.0 / qcomp=0.60 / qpmin=0 / qpmax=69 / qpstep=4 / ip_ratio=1.40 / aq=1:1.00
Default : Yes
Forced : No

Audio #1
ID : 2
Format : MPEG Audio
Format version : Version 1
Format profile : Layer 2
Codec ID : A_MPEG/L2
Codec ID/Hint : MP2
Duration : 2 h 59 min
Bit rate mode : Constant
Bit rate : 192 kb/s
Channel(s) : 2 channels
Sampling rate : 48.0 kHz
Frame rate : 41.667 FPS (1152 SPF)
Compression mode : Lossy
Stream size : 247 MiB (4%)
Language : Russian
Default : Yes
Forced : No

Audio #2
ID : 3
Format : MPEG Audio
Format version : Version 1
Format profile : Layer 2
Codec ID : A_MPEG/L2
Codec ID/Hint : MP2
Duration : 2 h 59 min
Bit rate mode : Constant
Bit rate : 192 kb/s
Channel(s) : 2 channels
Sampling rate : 48.0 kHz
Frame rate : 41.667 FPS (1152 SPF)
Compression mode : Lossy
Stream size : 247 MiB (4%)
Language : English
Default : No
Forced : No

 
Не забывайте говорить Спасибо. Не уходите с раздачи!   
Торрент: Зарегистрирован [26 сен 2018, 08:05] Скачать торрент
Скачать торрент
[ Размер 1.03 МБ / Просмотров 0 ]
Статус:
Проверен
 
.torrent скачан: 0 раз
Хэш: 9670ca46bdee5b89fddfd8f204e9c62a753955c9
Размер: 104.66 ГБ (112 382 199 198 байт)
Стать Автором раздачи
 
 
Раздал: 100 ГБ
Скачал: 0 байт
Ратио: Seed.
Сообщения: 190832
Зарегистрирован: 09 апр 2015, 20:00


  • Похожие торренты
    Ответы
    Просмотры
    Последнее сообщение

Вернуться в Спорт и здоровье (Спортивные турниры, фильмы и передачи etc)

Ресурс не предоставляет электронные версии произведений, а занимается лишь коллекционированием и каталогизацией ссылок, присылаемых и публикуемых на форуме нашими читателями. Если вы являетесь правообладателем какого-либо представленного материала и не желаете чтобы ссылка на него находилась в нашем каталоге, свяжитесь с нами и мы незамедлительно удалим её. Файлы для обмена на трекере предоставлены пользователями сайта, и администрация не несёт ответственности за их содержание. Просьба не заливать файлы, защищенные авторскими правами, а также файлы нелегального содержания!
cron