Свидание (2012) BDRip 1080p | Лицензия

 
 Статистика раздачи 
Размер: 4.97 ГБ   |  Зарегистрирован: 18 окт 2018, 19:30   |   .torrent скачан: 0 раз
Сидеров: 1  [ 0 байт/сек ]     Личеров: 0  [ 0 байт/сек ]  
  

Свидание (2012) BDRip 1080p | Лицензия

Сообщение apple2000 » 18 окт 2018, 20:03

Информация о фильме
Название: Свидание
Оригинальное название: Свидание
Год выхода: 2012
Жанр: комедия
Режиссер: Юсуп Бахшиев
В ролях: Владимир Кристовский, Екатерина Климова, Сергей Бадюк, Алёна Бабенко, Константин Мурзенко, Андрей Кайков, Григорий Сиятвинда, Нелли Неведина, Ольга Карпович, Геннадий Венгеров

О фильме:
Молодой, неженатый, преуспевающий хирург Дмитрий Горин по совету сестры назначает свидание ее подруге — привлекательной учительнице Ане Светловой. Прекрасное создание, попав под действие алкоголя, на деловом обеде, столь важном для Дмитрия, теряет над собой контроль, и торжественное мероприятие превращается в кошмар.



Выпущено: Россия / Kinoburo
Продолжительность: 01:23:31
Озвучивание: Оригинальное [лицензия]
Субтитры: нет

Файл
Формат: MKV
Качество: BDRip 1080p
Видео: x264, ~7704 Kбит/с, 1916x814, 25.000 кадр/с
Аудио: AC3, 6 ch, 640 Кбит/с

***Релиз от: -=DoMiNo=-

x264 info: frame I:879 Avg QP:15.68 size:127937
x264 info: frame P:29029 Avg QP:16.98 size: 67009
x264 info: frame B:95389 Avg QP:19.33 size: 30113
x264 info: consecutive B-frames: 2.3% 3.8% 13.2% 20.8% 10.6% 43.2% 2.1% 0.9% 3.2%

General
Unique ID : 9672548448436654460222200597862114304 (0x746DD75327EAB5480B1EF20F0E36400)
Complete name : Свидание.(2012).BLU-RAY.1080p.[-=DoMiNo=-].mkv
Format : Matroska
Format version : Version 4
File size : 4.97 GiB
Duration : 1 h 23 min
Overall bit rate : 8 513 kb/s
Movie name : Свидание
Deion : Молодой, неженатый, преуспевающий хирург Дмитрий Горин по совету сестры назначает свидание ее подруге — привлекательной учительнице Ане Светловой. Прекрасное создание, попав под действие алкоголя, на деловом обеде, столь важном для Дмитрия, теряет над собой контроль, и торжественное мероприятие превращается в кошмар. В довершение ко всему преследуемый похожим на Терминатора поклонником Ани, Дима остается без работы, любимого мотоцикла и ему грозит тюремное заключение. Начавшись столь невинно, свидание превращается в бесконечную череду комичных ситуаций, погонь и драк, что, впрочем, не помешает возникшим чувствам перерасти в настоящую любовь.
Attachments : poster.png
ACTORS : Vladimir Krestovskiy, Ekaterina Klimova, Sergei Badyuk, Elena Babenko, Olga Karpovich, Andrey Kaykov, Aleksey Malashkin, Nelli Nevedina, Aleksey Panin, Grigorij Sijatvinda, Gennadi Vengerov, Olga Yurasova, Konstantin Murzenko, Yusup Bakhshiev
COUNTRY : Russia
DATE : 2012-04-19
DIRECTOR : Yusup Bakhshiev
GENRE : комедия, мелодрама
ORIGINAL_TITLE : Svidaniye
PUBLISHER : Kinoburo #1
RATING : 4.50

Video
ID : 1
Format : AVC
Format/Info : Advanced Video Codec
Format profile : High@L4.1
Format settings : CABAC / 5 Ref Frames
Format settings, CABAC : Yes
Format settings, ReFrames : 5 frames
Codec ID : V_MPEG4/ISO/AVC
Duration : 1 h 23 min
Bit rate : 7 704 kb/s
Width : 1 916 pixels
Height : 814 pixels
Display aspect ratio : 2.35:1
Frame rate mode : Constant
Frame rate : 25.000 FPS
Color space : YUV
Chroma subsampling : 4:2:0
Bit depth : 8 bits
Scan type : Progressive
Bits/(Pixel*Frame) : 0.198
Stream size : 4.50 GiB (90%)
Title : RIP_BY_-=DoMiNo=-
Writing library : x264 core 155 r2901M 7d0ff22
Encoding settings : cabac=1 / ref=5 / deblock=1:-3:-3 / analyse=0x3:0x113 / me=umh / subme=10 / psy=1 / psy_rd=1.00:0.00 / mixed_ref=1 / me_range=32 / chroma_me=1 / trellis=2 / 8x8dct=1 / cqm=0 / deadzone=21,11 / fast_pskip=1 / chroma_qp_offset=-2 / threads=6 / lookahead_threads=1 / sliced_threads=0 / nr=0 / decimate=1 / interlaced=0 / bluray_compat=0 / constrained_intra=0 / bframes=8 / b_pyramid=2 / b_adapt=2 / b_bias=0 / direct=1 / weightb=1 / open_gop=0 / weightp=2 / keyint=250 / keyint_min=25 / scenecut=40 / intra_refresh=0 / rc=crf / mbtree=0 / crf=18.0 / qcomp=0.70 / qpmin=0 / qpmax=69 / qpstep=4 / ip_ratio=1.40 / pb_ratio=1.30 / aq=1:1.00
Default : Yes
Forced : No
Color range : Limited

Audio
ID : 2
Format : AC-3
Format/Info : Audio Coding 3
Commercial name : Dolby Digital
Codec ID : A_AC3
Duration : 1 h 23 min
Bit rate mode : Constant
Bit rate : 640 kb/s
Channel(s) : 6 channels
Channel layout : L R C LFE Ls Rs
Sampling rate : 48.0 kHz
Frame rate : 31.250 FPS (1536 SPF)
Bit depth : 16 bits
Compression mode : Lossy
Stream size : 382 MiB (8%)
Language : Russian
Service kind : Complete Main
Default : Yes
Forced : No

Menu
00:00:00.000 : :Глава 1
00:00:34.000 : :Глава 2
00:10:17.200 : :Глава 3
00:19:41.680 : :Глава 4
00:29:22.960 : :Глава 5
00:40:23.440 : :Глава 6
00:52:31.120 : :Глава 7
01:03:22.000 : :Глава 8
01:12:34.480 : :Глава 9
 
Не забывайте говорить Спасибо. Не уходите с раздачи!   
Торрент: Зарегистрирован [18 окт 2018, 19:30] Скачать торрент
Скачать торрент
[ Размер 15.78 КБ / Просмотров 2 ]
Статус:
Проверен
 
.torrent скачан: 0 раз
Хэш: 8685296845eff579565103259987814b4d288121
Размер: 4.97 ГБ (5 333 569 254 байт)
Стать Автором раздачи
 
 
Раздал: 0 байт
Скачал: 0 байт
Ратио: Inf.
Сообщения: 42425
Зарегистрирован: 05 окт 2014, 15:23


  • Похожие торренты
    Ответы
    Просмотры
    Последнее сообщение

Вернуться в Отечественные фильмы 2011 - 2015 года

Ресурс не предоставляет электронные версии произведений, а занимается лишь коллекционированием и каталогизацией ссылок, присылаемых и публикуемых на форуме нашими читателями. Если вы являетесь правообладателем какого-либо представленного материала и не желаете чтобы ссылка на него находилась в нашем каталоге, свяжитесь с нами и мы незамедлительно удалим её. Файлы для обмена на трекере предоставлены пользователями сайта, и администрация не несёт ответственности за их содержание. Просьба не заливать файлы, защищенные авторскими правами, а также файлы нелегального содержания!
cron