Излечить страх (2013) DVDRip-AVC от KORSAR

 
 Статистика раздачи 
Размер: 1.92 ГБ   |  Зарегистрирован: 15 окт 2018, 21:26   |   .torrent скачан: 0 раз
Сидеров: 1  [ 0 байт/сек ]     Личеров: 0  [ 0 байт/сек ]  
  

Излечить страх (2013) DVDRip-AVC от KORSAR

Сообщение apple2000 » 15 окт 2018, 22:19

Информация о фильме
Название: Излечить страх (Лука)
Год выхода: 2013
Жанр: История, биография, драма
Режиссер: Александр Пархоменко
В ролях: Виталий Безруков, Андрей Саминин, Екатерина Гусева, Виктория Малекторович, Алексей Шевченков, Александр Яцко, Владимир Гостюхин, Иван Мацкевич, Александр Числов

О фильме: В основе сюжета картины лежит драматичная судьба великого хирурга и священнослужителя — В. Ф. Войно-Ясенецкого (Святителя Луки). Он мог выставлять свои картины в лучших галереях мира и пачкать руки лишь красками, а стал «мужицким врачом», архиепископом и жертвой политических репрессий. Талантливый врач, человек глубокой веры, он успешно врачевал и душу и тело людей; в самые безбожные времена не поступался своей совестью. Тысячи людей обязаны ему жизнью, но спасти единственную женщину, которую он любил больше жизни, так и не смог.



Выпущено: Украина, Беларусь
Продолжительность: 01:47:58
Перевод: Не требуется

Файл
Кодек: х264
Качество: DVDRip-AVC
Видео: MPEG-4 AVC, 720x438@1024x438, 25 fps, 2275 Кбит/с
Аудио: AC3, 2 ch, 224 Кбит/с
Субтитры: Нет

Релиз от:


x264 [info]: frame I:1002 Avg QP:13.22 size: 63462
x264 [info]: frame P:30239 Avg QP:14.90 size: 29044
x264 [info]: frame B:130732 Avg QP:16.80 size: 7190

=======================================

Общее
Уникальный идентификатор : 193108393928855169748946524601249974113 (0x914752E70C41CA34967221FB2B7C4761)
Полное имя : Излечить страх (2013) DVDRip-AVC.KORSAR.mkv
Формат : Matroska
Версия формата : Version 2
Размер файла : 1,92 Гбайт
Продолжительность : 1 ч. 47 м.
Общий поток : 2549 Кбит/сек
Дата кодирования : UTC 2018-10-14 03:25:46
Программа кодирования : mkvmerge v7.8.0 ('River Man') 32bit built on Apr 3 2015 12:11:22
Библиотека кодирования : libebml v1.3.1 + libmatroska v1.4.2

Видео
Идентификатор : 1
Формат : AVC
Формат/Информация : Advanced Video Codec
Профиль формата : High@L4.1
Параметр CABAC формата : Да
Параметр ReFrames формата : 13 кадров
Идентификатор кодека : V_MPEG4/ISO/AVC
Продолжительность : 1 ч. 47 м.
Битрейт : 2275 Кбит/сек
Ширина : 720 пикселей
Высота : 438 пикселей
Соотношение сторон : 2,35:1
Режим частоты кадров : Постоянный
Частота кадров : 25,000 кадров/сек
Цветовое пространство : YUV
Субдискретизация насыщенности : 4:2:0
Битовая глубина : 8 бит
Тип развёртки : Прогрессивная
Бит/(Пиксели*Кадры) : 0.289
Размер потока : 1,72 Гбайт (89%)
Библиотека кодирования : x264 core 148 r2744kMod b97ae06
Настройки программы : cabac=1 / ref=13 / deblock=1:-2:-2 / analyse=0x3:0x133 / me=umh / subme=10 / psy=1 / fade_compensate=0.00 / psy_rd=1.05:0.10 / mixed_ref=1 / me_range=64 / chroma_me=1 / trellis=2 / 8x8dct=1 / cqm=0 / deadzone=21,11 / fast_pskip=1 / chroma_qp_offset=-3 / threads=6 / lookahead_threads=1 / sliced_threads=0 / nr=0 / decimate=1 / interlaced=0 / bluray_compat=0 / constrained_intra=0 / bframes=16 / b_pyramid=2 / b_adapt=2 / b_bias=0 / direct=1 / weightb=1 / open_gop=0 / weightp=2 / keyint=250 / keyint_min=25 / scenecut=40 / intra_refresh=0 / rc=crf / mbtree=0 / crf=16.1000 / qcomp=0.63 / qpmin=0 / qpmax=39 / qpstep=4 / ip_ratio=1.40 / pb_ratio=1.30 / aq=1:1.00
Язык : Russian
Default : Да
Forced : Нет
Цветовой диапазон : Limited
Основные цвета : BT.601 PAL
Характеристики трансфера : BT.470 System B, BT.470 System G
Коэффициенты матрицы : BT.601

Аудио
Идентификатор : 2
Формат : AC-3
Формат/Информация : Audio Coding 3
Параметр Endianness формата : Big
Идентификатор кодека : A_AC3
Продолжительность : 1 ч. 47 м.
Вид битрейта : Постоянный
Битрейт : 224 Кбит/сек
Каналы : 2 канала
Расположение каналов : Front: L R
Частота : 48,0 КГц
Частота кадров : 31,250 кадров/сек (1536 spf)
Битовая глубина : 16 бит
Метод сжатия : С потерями
Размер потока : 173 Мбайт (9%)
Язык : Russian
Default : Да
Forced : Нет
 
Не забывайте говорить Спасибо. Не уходите с раздачи!   
Торрент: Зарегистрирован [15 окт 2018, 21:26] Скачать торрент
Скачать торрент
[ Размер 20.21 КБ / Просмотров 2 ]
Статус:
Проверен
 
.torrent скачан: 0 раз
Хэш: e7d4dbc3396fe3a1f48147e23bca22f84599cb76
Размер: 1.92 ГБ (2 064 658 451 байт)
Стать Автором раздачи
 
 
Раздал: 0 байт
Скачал: 0 байт
Ратио: Inf.
Сообщения: 42425
Зарегистрирован: 05 окт 2014, 15:23


  • Похожие торренты
    Ответы
    Просмотры
    Последнее сообщение

Вернуться в Отечественные фильмы 2011 - 2015 года

Ресурс не предоставляет электронные версии произведений, а занимается лишь коллекционированием и каталогизацией ссылок, присылаемых и публикуемых на форуме нашими читателями. Если вы являетесь правообладателем какого-либо представленного материала и не желаете чтобы ссылка на него находилась в нашем каталоге, свяжитесь с нами и мы незамедлительно удалим её. Файлы для обмена на трекере предоставлены пользователями сайта, и администрация не несёт ответственности за их содержание. Просьба не заливать файлы, защищенные авторскими правами, а также файлы нелегального содержания!
cron