Счастья! Здоровья! (2018) WEB-DLRip от GeneralFilm | iTunes

 
 Статистика раздачи 
Размер: 1.46 ГБ   |  Зарегистрирован: 13 окт 2018, 16:56   |   .torrent скачан: 0 раз
Сидеров: 1  [ 0 байт/сек ]     Личеров: 0  [ 0 байт/сек ]  
  

Счастья! Здоровья! (2018) WEB-DLRip от GeneralFilm | iTunes

Сообщение apple2000 » 13 окт 2018, 17:38

Информация о фильме
Название: Счастья! Здоровья!
Год выхода: 2018
Жанр: Комедия
Режиссер: Марк Горобец, Арман Марутян, Леонид Марголин
В ролях: Зоя Бербер, Камиль Ларин, Марина Федункив, Сергей Аброскин, Наталья Рудова, Грант Тохатян, Даниил Вахрушев, Олег Верещагин, Дарья Пынзарь, Стася Милославская

О фильме:
Три влюблённые пары — татарская, армянская и русская — готовятся сыграть свадьбы. Но выясняется, что для Рината и Гузельки свадьба — это способ добыть деньги, чтобы вернуть дорогую скрипку, для отца Артура важнее всего, чтобы свадьба его сына и москвички-Юли прошла в Армении, а у Светы есть «скелет в шкафу» — её «бывший» Андрей в день свадьбы с Олегом вышел из тюрьмы. Зато гости отрываются от души, а у зрителей фильма «Счастья! Здоровья!» есть уникальная возможность побывать сразу на трёх свадьбах. Тосты и конкурсы, песни и танцы, поцелуи и… драки — что за свадьба без драки?! Это бомбически круто и нереально смешно. Три свадьбы, три пары — такие разные, такие непохожие. Но любовь объединяет, а гости от души желают: «Счастья! Здоровья!»



Страна: Россия
Студия: «Fresh Film»
Продолжительность: 01:23:52
Перевод: Не требуется | iTunes
Субтитры: нет

Файл
Формат: avi
Качество: WEB-DLRip
Видео: XviD build 73, 720x304 (2.35:1), 24.000 fps, 2091 Kbps (0.398 bit/pixel)
Звук: 48.0 kHz, AC3, 5/1 ch, 384 kbps

General
Complete name : D:RazdachiSchastja.Zdorovija.2018.XviD.WEB-DLRip.GeneralFilm.avi
Format : AVI
Format/Info : Audio Video Interleave
File size : 1.46 GiB
Duration : 1 h 23 min
Overall bit rate : 2 484 kb/s
Writing application : VirtualDubMod 1.5.10.3 | www.virtualdub-fr.org || (build 2550/release)
Writing library : VirtualDubMod build 2550/release

Video
ID : 0
Format : MPEG-4 Visual
Format profile : Advanced Simple@L5
Format settings, BVOP : 1
Format settings, QPel : No
Format settings, GMC : No warppoints
Format settings, Matrix : Custom
Codec ID : XVID
Codec ID/Hint : XviD
Duration : 1 h 23 min
Bit rate : 2 091 kb/s
Width : 720 pixels
Height : 304 pixels
Display aspect ratio : 2.35:1
Frame rate : 24.000 FPS
Color space : YUV
Chroma subsampling : 4:2:0
Bit depth : 8 bits
Scan type : Progressive
Compression mode : Lossy
Bits/(Pixel*Frame) : 0.398
Stream size : 1.22 GiB (84%)
Writing library : XviD 73

Audio
ID : 1
Format : AC-3
Format/Info : Audio Coding 3
Format settings, Endianness : Big
Codec ID : 2000
Duration : 1 h 23 min
Bit rate mode : Constant
Bit rate : 384 kb/s
Channel(s) : 6 channels
Channel positions : Front: L C R, Side: L R, LFE
Sampling rate : 48.0 kHz
Frame rate : 31.250 FPS (1536 SPF)
Bit depth : 16 bits
Compression mode : Lossy
Stream size : 230 MiB (15%)
Alignment : Split accross interleaves
Interleave, duration : 42 ms (1.00 video frame)
Interleave, preload duratio : 500 ms
Service kind : Complete Main

Релиз от:
 
Не забывайте говорить Спасибо. Не уходите с раздачи!   
Торрент: Зарегистрирован [13 окт 2018, 16:56] Скачать торрент
Скачать торрент
[ Размер 15.53 КБ / Просмотров 1 ]
Статус:
Проверен
 
.torrent скачан: 0 раз
Хэш: 251e3f0831d064d704f278c3ce62b7d1d0b80bec
Размер: 1.46 ГБ (1 562 347 520 байт)
Стать Автором раздачи
 
 
Раздал: 0 байт
Скачал: 0 байт
Ратио: Inf.
Сообщения: 40519
Зарегистрирован: 05 окт 2014, 15:23


  • Похожие торренты
    Ответы
    Просмотры
    Последнее сообщение

Вернуться в Отечественное кино

Ресурс не предоставляет электронные версии произведений, а занимается лишь коллекционированием и каталогизацией ссылок, присылаемых и публикуемых на форуме нашими читателями. Если вы являетесь правообладателем какого-либо представленного материала и не желаете чтобы ссылка на него находилась в нашем каталоге, свяжитесь с нами и мы незамедлительно удалим её. Файлы для обмена на трекере предоставлены пользователями сайта, и администрация не несёт ответственности за их содержание. Просьба не заливать файлы, защищенные авторскими правами, а также файлы нелегального содержания!
cron