Зомбиллениум / Zombillénium (2017) BDRip 1080p от Ash61 | 3D-Video | halfOU | L

 
 Статистика раздачи 
Размер: 4.08 ГБ   |  Зарегистрирован: 13 окт 2018, 16:19   |   .torrent скачан: 0 раз
Сидеров: 1  [ 0 байт/сек ]     Личеров: 0  [ 0 байт/сек ]  
  

Зомбиллениум / Zombillénium (2017) BDRip 1080p от Ash61 | 3D-Video | halfOU | L

Сообщение explosiveone » 13 окт 2018, 16:53




Зомбиллениум
Zombillénium



#77Год выпуска: 2017
Страна: Франция, Бельгия (Belvision, Dupuis Edition & Audiovisuel, Universal Pictures, Maybe Movies)
Жанр: мультфильм, фэнтези, комедия
Продолжительность: 01:20:16

Перевод: Любительский (многоголосый закадровый) - "Колобок"

Режиссер: Артур де Пинс, Алексис Дюкор / Arthur de Pins, Alexis Ducord



Роли озвучивали (в оригинале): Эммануэль Кюртиль, Келли Марот, Алексис Томассиан, Ален Шоке, Эстер Корвез-Бодуан, Матьё Моннэр, Эммануэль Жакоми, Фили Кейта



Описание: Зомбиллениум — тематический парк, единственное место на земле, где настоящие зомби могут быть на виду. Когда Гектор, человек, грозит раскрыть истинную сущность сотрудников, начальство парка вынуждено принять его на работу. Чтобы увидеть свою дочь, Гектору придётся убежать от своих сотрудников — зомби и оборотней.



Доп. инфо: Русская дорога получена вставкой вырезанных фраз из дороги Koshara в центр оригинала.
Главы проименованы по-русски + оригинал.



Премьера (мир): 24 мая 2017

.



Качество: BDRip (by Ash61)
Контейнер: MKV
Формат 3D: Half OverUnder / Вертикальная анаморфная стереопара
Порядок ракурсов: левый ракурс первый



Видео: AVC / 1920х1080p / 23,976 fps / 6000 Kbps

Аудио:
#1 - Русский / AC3 / 48 KHz / 5.1 ch / 640 Kbps (MVO - Колобок) [перемонтаж из Koshara - Ash61]
#2 - Французский / AC3 / 48 KHz / 5.1 ch / 640 Kbps (Original - BD 3D)

Субтитры: Русские форсированные (SRT UTF-8 - и вшитые softsub, и внешние) [от Ash61]

General
Unique ID : 181733346600042354950989909124579459656 (0x88B891C4EC8EB9798F4205B052D20248)
Complete name : D:Zombillenium(2017)3D-halfOU(Ash61)MVOZombillenium(2017)3D-halfOU(Ash61)MVO.mkv
Format : Matroska
Format version : Version 2
File size : 4.08 GiB
Duration : 1h 20mn
Overall bit rate : 7 277 Kbps
Movie name : Зомбиллениум / Zombillénium (2017) in 3D
Encoded date : UTC 2018-10-13 12:16:15
Writing application : mkvmerge v5.8.0 ('No Sleep / Pillow') built on Sep 2 2012 15:37:04
Writing library : libebml v1.2.3 + libmatroska v1.3.0

Video
ID : 1
Format : AVC
Format/Info : Advanced Video Codec
Format profile : High@L4.1
Format settings, CABAC : Yes
Format settings, ReFrames : 4 frames
Codec ID : V_MPEG4/ISO/AVC
Duration : 1h 20mn
Bit rate : 6 000 Kbps
Width : 1 920 pixels
Height : 1 080 pixels
Display aspect ratio : 16:9
Frame rate mode : Constant
Frame rate : 23.976 (24000/1001) fps
Color space : YUV
Chroma subsampling : 4:2:0
Bit depth : 8 bits
Scan type : Progressive
Bits/(Pixel*Frame) : 0.121
Stream size : 3.28 GiB (80%)
Title : BDRip by Ash61
Writing library : x264 core 146 r2538 121396c
Encoding settings : cabac=1 / ref=4 / deblock=1:-3:-3 / analyse=0x3:0x113 / me=umh / subme=10 / psy=1 / psy_rd=1.00:0.00 / mixed_ref=1 / me_range=32 / chroma_me=1 / trellis=2 / 8x8dct=1 / cqm=0 / deadzone=21,11 / fast_pskip=0 / chroma_qp_offset=-2 / threads=12 / lookahead_threads=2 / sliced_threads=0 / nr=0 / decimate=0 / interlaced=0 / bluray_compat=0 / constrained_intra=0 / bframes=8 / b_pyramid=2 / b_adapt=2 / b_bias=0 / direct=3 / weightb=1 / open_gop=0 / weightp=2 / keyint=250 / keyint_min=23 / scenecut=40 / intra_refresh=0 / rc_lookahead=60 / rc=2pass / mbtree=0 / bitrate=6000 / ratetol=1.0 / qcomp=0.70 / qpmin=0 / qpmax=69 / qpstep=4 / cplxblur=20.0 / qblur=0.5 / vbv_maxrate=40000 / vbv_bufsize=30000 / nal_hrd=none / filler=0 / frame-packing=4 / ip_ratio=1.40 / pb_ratio=1.30 / aq=1:0.70
Language : French
Default : Yes
Forced : No

Audio #1
ID : 2
Format : AC-3
Format/Info : Audio Coding 3
Mode extension : CM (complete main)
Format settings, Endianness : Big
Codec ID : A_AC3
Duration : 1h 20mn
Bit rate mode : Constant
Bit rate : 640 Kbps
Channel(s) : 6 channels
Channel positions : Front: L C R, Side: L R, LFE
Sampling rate : 48.0 KHz
Frame rate : 31.250 fps (1536 spf)
Compression mode : Lossy
Stream size : 367 MiB (9%)
Title : MVO - "Колобок" (перемонтаж из Koshara - Ash61)
Language : Russian
Default : Yes
Forced : No

Audio #2
ID : 3
Format : AC-3
Format/Info : Audio Coding 3
Mode extension : CM (complete main)
Format settings, Endianness : Big
Codec ID : A_AC3
Duration : 1h 20mn
Bit rate mode : Constant
Bit rate : 640 Kbps
Channel(s) : 6 channels
Channel positions : Front: L C R, Side: L R, LFE
Sampling rate : 48.0 KHz
Frame rate : 31.250 fps (1536 spf)
Compression mode : Lossy
Stream size : 367 MiB (9%)
Title : Original - BD 3D
Language : French
Default : No
Forced : No

Text
ID : 4
Format : UTF-8
Codec ID : S_TEXT/UTF8
Codec ID/Info : UTF-8 Plain Text
Title : Форсированные (для MVO "Колобок") [от Ash61]
Language : Russian
Default : Yes
Forced : No

Menu
00:00:00.000 : : 1. Папа, своди меня в Зомбиллениум / Papa, tu m'emmèneras à Zombillénium
00:04:21.845 : : 2. Добро пожаловать в Зомбиллениум / Bienvenue à Zombillénium
00:09:53.968 : : 3. Вы продаете воздушные шары? / Tu vends des ballons?
00:18:39.618 : : 4. Монстр / Un moooonnnstre
00:25:19.893 : : 5. Это не безумное соглашение / C'est pas la folle entente
00:27:56.800 : : 6. 15 дней / 15 jours
00:36:44.077 : : 7. Стоять как один / Stand as one
00:42:02.395 : : 8. Ты тоже неплохой / T'es pas mal non plus
00:47:57.291 : : 9. Призрачный поезд / Le train fantôme
00:54:37.149 : : 10. Замена директора / Changement de direction
01:03:07.242 : : 11. Зомби: сопротивление!!! / Zombies: résistance!!
01:12:55.538 : : 12. Готовы к взлету? / Prête pour le décollage?














Cannes Film Festival 2017 - номинация
Annecy International Animated Film Festival 2017 - номинация
Европейская киноакадемия, 2017 год - Номинации (1): Лучший анимационный фильм
Сезар, 2018 год - Номинации (1): Лучший анимационный фильм
Lumiere Awards, France 2018 - номинация Лучший анимационный фильм
Seattle International Film Festival 2018 - номинация Лучший фильм




 
Не забывайте говорить Спасибо. Не уходите с раздачи!   
Торрент: Зарегистрирован [13 окт 2018, 16:19] Скачать торрент
Скачать торрент
[ Размер 21.41 КБ / Просмотров 1 ]
Статус:
Проверен
 
.torrent скачан: 0 раз
Хэш: b0e0058cf6d5617ceeb9da03e144720bb102cabd
Размер: 4.08 ГБ (4 380 740 636 байт)
Стать Автором раздачи
 
 
Раздал: 100 ГБ
Скачал: 0 байт
Ратио: Seed.
Сообщения: 102724
Зарегистрирован: 09 апр 2015, 22:31


  • Похожие торренты
    Ответы
    Просмотры
    Последнее сообщение

Вернуться в Мультфильмы и мультсериалы

Ресурс не предоставляет электронные версии произведений, а занимается лишь коллекционированием и каталогизацией ссылок, присылаемых и публикуемых на форуме нашими читателями. Если вы являетесь правообладателем какого-либо представленного материала и не желаете чтобы ссылка на него находилась в нашем каталоге, свяжитесь с нами и мы незамедлительно удалим её. Файлы для обмена на трекере предоставлены пользователями сайта, и администрация не несёт ответственности за их содержание. Просьба не заливать файлы, защищенные авторскими правами, а также файлы нелегального содержания!
cron