Куклы / Dolls (1987) BDRip-AVC | P2

 
 Статистика раздачи 
Размер: 1.58 ГБ   |  Зарегистрирован: 13 окт 2018, 15:52   |   .torrent скачан: 0 раз
Сидеров: 1  [ 0 байт/сек ]     Личеров: 0  [ 0 байт/сек ]  
  

Куклы / Dolls (1987) BDRip-AVC | P2

Сообщение Nasty » 13 окт 2018, 16:28

Информация о фильме
Название: Куклы
Оригинальное название: Dolls
Год выхода: 1987
Жанр: Ужасы, фэнтези
Режиссер: Стюарт Гордон
В ролях: Йен Патрик Уильямс, Кэролин Пёрди-Гордон, Кэрри Лоррэйн, Гай Рольф, Хилари Мейсон, Банти Бэйли, Кэсси Стюарт, Стивен Ли

О фильме:
Застигнутые ненастьем путешественники попадают в усадьбу в лесу, где проживает странная пожилая пара. Созданные этими супругами куклы обладают способностью оживать и даже убивать тех, кто им не нравится…


Страна: США
Студия: Empire Pictures, Taryn Productions Inc.
Продолжительность: 01:17:37
Перевод: Профессиональный двухголосый

Файл
Кодек: x.264
Качество: BDRip-AVC | исх. BDRemux 1080p
Видео: h264 / 2720 kbps / 1024x552 / 23.976 fps
Звук: 48 kHz / 192 kbps
Субтитры: Нет

Релиз от: Alukard14

x264 [info]: frame I:1665 Avg QP:17.49 size: 63190
x264 [info]: frame P:20345 Avg QP:19.93 size: 29529
x264 [info]: frame B:89638 Avg QP:22.29 size: 9784
x264 [info]: consecutive B-frames: 5.8% 0.5% 0.7% 0.9% 0.8% 1.0% 90.3%
x264 [info]: mb I I16..4: 10.5% 76.0% 13.4%
x264 [info]: mb P I16..4: 0.7% 10.8% 1.3% P16..4: 32.0% 36.4% 11.3% 0.0% 0.0% skip: 7.5%
x264 [info]: mb B I16..4: 0.1% 1.4% 0.2% B16..8: 37.0% 18.3% 2.9% direct: 5.6% skip:34.6% L0:45.1% L1:44.6% BI:10.3%
x264 [info]: 8x8 transform intra:82.4% inter:59.3%
x264 [info]: direct mvs spatial:99.2% temporal:0.8%
x264 [info]: coded y,uvDC,uvAC intra: 86.8% 74.4% 41.7% inter: 26.5% 18.9% 3.9%
x264 [info]: i16 v,h,dc,p: 41% 11% 13% 34%
x264 [info]: i8 v,h,dc,ddl,ddr,vr,hd,vl,hu: 11% 5% 10% 10% 14% 14% 12% 12% 12%
x264 [info]: i4 v,h,dc,ddl,ddr,vr,hd,vl,hu: 14% 5% 12% 9% 13% 13% 11% 11% 11%
x264 [info]: i8c dc,h,v,p: 35% 27% 20% 17%
x264 [info]: Weighted P-Frames: Y:10.1% UV:4.4%
x264 [info]: ref P L0: 39.9% 7.4% 20.2% 7.7% 7.0% 4.6% 4.7% 2.2% 2.3% 1.7% 1.9% 0.5% 0.0%
x264 [info]: ref B L0: 69.0% 13.9% 6.3% 3.4% 2.3% 2.0% 1.5% 0.9% 0.4% 0.2%
x264 [info]: ref B L1: 89.8% 10.2%
x264 [info]: kb/s:2719.55

Общее
Уникальный идентификатор : 181970929906556890223834156263870969679 (0x88E65387D705CAA19DF18207978E374F)
Полное имя : E:TestDolls.1987.by.Alukard14.mkv
Формат : Matroska
Версия формата : Version 2
Размер файла : 1,58 Гбайт
Продолжительность : 1 ч. 17 м.
Общий поток : 2913 Кбит/сек
Дата кодирования : UTC 2018-10-13 12:19:59
Программа кодирования : mkvmerge v6.9.1 ('Blue Panther') 32bit built on Apr 18 2014 18:15:44
Библиотека кодирования : libebml v1.3.0 + libmatroska v1.4.1

Видео
Идентификатор : 1
Формат : AVC
Формат/Информация : Advanced Video Codec
Профиль формата : High@L4.1
Настройки формата : CABAC / 11 Ref Frames
Параметр CABAC формата : Да
Параметр RefFrames формата : 11 кадров
Идентификатор кодека : V_MPEG4/ISO/AVC
Продолжительность : 1 ч. 17 м.
Битрейт : 2720 Кбит/сек
Ширина : 1024 пикселя
Высота : 552 пикселя
Соотношение сторон : 1,85:1
Режим частоты кадров : Постоянный
Частота кадров : 23,976 кадра/сек
Цветовое пространство : YUV
Субдискретизация насыщенности : 4:2:0
Битовая глубина : 8 бит
Тип развёртки : Прогрессивная
Бит/(Пиксели*Кадры) : 0.201
Размер потока : 1,44 Гбайт (91%)
Библиотека кодирования : x264 core 148 r2638 7599210
Настройки программы : cabac=1 / ref=11 / deblock=1:-3:-3 / analyse=0x3:0x113 / me=umh / subme=11 / psy=1 / psy_rd=1.00:0.15 / mixed_ref=1 / me_range=48 / chroma_me=1 / trellis=2 / 8x8dct=1 / cqm=0 / deadzone=21,11 / fast_pskip=0 / chroma_qp_offset=-3 / threads=9 / lookahead_threads=1 / sliced_threads=0 / nr=0 / decimate=0 / interlaced=0 / bluray_compat=0 / constrained_intra=0 / bframes=6 / b_pyramid=2 / b_adapt=0 / b_bias=0 / direct=3 / weightb=1 / open_gop=0 / weightp=2 / keyint=240 / keyint_min=24 / scenecut=40 / intra_refresh=0 / rc_lookahead=40 / rc=2pass / mbtree=1 / bitrate=2720 / ratetol=1.0 / qcomp=0.60 / qpmin=0 / qpmax=69 / qpstep=2 / cplxblur=20.0 / qblur=0.5 / vbv_maxrate=14000 / vbv_bufsize=14000 / nal_hrd=none / filler=0 / ip_ratio=1.40 / aq=1:1.00
Default : Да
Forced : Нет

Аудио
Идентификатор : 2
Формат : AC-3
Формат/Информация : Audio Coding 3
Идентификатор кодека : A_AC3
Продолжительность : 1 ч. 17 м.
Вид битрейта : Постоянный
Битрейт : 192 Кбит/сек
Каналы : 2 канала
Расположение каналов : Front: L R
Частота : 48,0 КГц
Частота кадров : 31,250 кадров/сек (1536 SPF)
Битовая глубина : 16 бит
Метод сжатия : С потерями
Размер потока : 107 Мбайт (7%)
Default : Да
Forced : Нет


 
Не забывайте говорить Спасибо. Не уходите с раздачи!   
Торрент: Зарегистрирован [13 окт 2018, 15:52] Скачать торрент
Скачать торрент
[ Размер 16.75 КБ / Просмотров 2 ]
Статус:
Проверен
 
.torrent скачан: 0 раз
Хэш: c85026ae0933d857b24b89e9bb5f3c7faa62d09d
Размер: 1.58 ГБ (1 695 776 797 байт)
Стать Автором раздачи
 
 
Раздал: 100 ГБ
Скачал: 0 байт
Ратио: Seed.
Сообщения: 39821
Зарегистрирован: 09 апр 2015, 19:56


  • Похожие торренты
    Ответы
    Просмотры
    Последнее сообщение

Вернуться в Зарубежное кино

Ресурс не предоставляет электронные версии произведений, а занимается лишь коллекционированием и каталогизацией ссылок, присылаемых и публикуемых на форуме нашими читателями. Если вы являетесь правообладателем какого-либо представленного материала и не желаете чтобы ссылка на него находилась в нашем каталоге, свяжитесь с нами и мы незамедлительно удалим её. Файлы для обмена на трекере предоставлены пользователями сайта, и администрация не несёт ответственности за их содержание. Просьба не заливать файлы, защищенные авторскими правами, а также файлы нелегального содержания!
cron