Приходите завтра... (1962) HDTVRip от New-Team | Цветная версия

 
 Статистика раздачи 
Размер: 1.09 ГБ   |  Зарегистрирован: 13 окт 2018, 14:17   |   .torrent скачан: 0 раз
Сидеров: 1  [ 0 байт/сек ]     Личеров: 0  [ 0 байт/сек ]  
  

Приходите завтра... (1962) HDTVRip от New-Team | Цветная версия

Сообщение apple2000 » 13 окт 2018, 14:53

Страна: СССР
Год выпуска: 1962
Студия: Одесская киностудия

Жанр: драма, мелодрама, комедия, музыка
Продолжительность: 01:32:33

Перевод: не требуется
Оригинальная аудиодорожка: русский
Cубтитры: нет

Режиссер: Евгений Ташков

В ролях:
Екатерина Савинова, Анатолий Папанов, Юрий Горобец, Антонина Максимова, Надежда Животова, Александр Ширвиндт, Юрий Белов, Борис Бибиков...
Об актёрах подробней

Описание:
Простая и обаятельная девушка Фрося Бурлакова приезжает из сибирской деревушки в Москву поступать в консерваторию. У Фроси сильный и красивый голос, она подвижна и артистична, а потому ее заветная мечта должна непременно сбыться. Прием в консерваторию уже закончен, но Фрося не собирается опускать руки. Проведя в консерватории не один день, Фрося все же добивается, чтобы ее прослушал известный профессор...






Исходник: HDTV 1080i
Тип релиза: HDTVRip
Контейнер: AVI

Видео: 720x400 (16:9), 25,000 fps, XviD ~ 1293 kbps avg, 0.180 bit/pixel
Аудио: 48 kHz, Dolby Digital AC3 5.1 ch, 384.00 kbps

Раздача от:
Общее
Полное имя : Prihodite.zavtra...1962.BDRip_[New-team]_by_AVP_Studio.avi
Формат : AVI
Формат/Информация : Audio Video Interleave
Размер файла : 1,09 Гбайт
Продолжительность : 1 ч. 32 м.
Общий поток : 1687 Кбит/сек
Программа кодирования : VirtualDubMod 1.5.10.3 | www.virtualdub-fr.org || (build 2550/release)
Библиотека кодирования : VirtualDubMod build 2550/release

Видео
Идентификатор : 0
Формат : MPEG-4 Visual
Профиль формата : Advanced Simple@L5
Настройки формата : BVOP1 / Custom Matrix
Параметр BVOP формата : 1
Параметр QPel формата : Нет
Параметр GMC формата : Без точки перехода
Параметр матрицы формата : Выборочная
Идентификатор кодека : XVID
Идентификатор кодека/Подсказка : XviD
Продолжительность : 1 ч. 32 м.
Битрейт : 1293 Кбит/сек
Ширина : 720 пикселей
Высота : 400 пикселей
Соотношение сторон : 16:9
Частота кадров : 25,000 кадров/сек
Цветовое пространство : YUV
Субдискретизация насыщенности : 4:2:0
Битовая глубина : 8 бит
Тип развёртки : Прогрессивная
Метод сжатия : С потерями
Бит/(Пиксели*Кадры) : 0.180
Размер потока : 856 Мбайт (77%)
Библиотека кодирования : XviD 73

Аудио
Идентификатор : 1
Формат : AC-3
Формат/Информация : Audio Coding 3
Коммерческое название : Dolby Digital
Идентификатор кодека : 2000
Продолжительность : 1 ч. 32 м.
Вид битрейта : Постоянный
Битрейт : 384 Кбит/сек
Каналы : 6 каналов
Channel layout : L R C LFE Ls Rs
Частота : 48,0 КГц
Частота кадров : 31,250 кадров/сек (1536 SPF)
Битовая глубина : 16 бит
Метод сжатия : С потерями
Размер потока : 254 Мбайт (23%)
Выравнивание : Разделение по промежуткам
Продолжительность промежутка : 40 мс. (1,00 видеокадр)
Время предзагрузки промежутка : 500 мс


 
Не забывайте говорить Спасибо. Не уходите с раздачи!   
Торрент: Зарегистрирован [13 окт 2018, 14:17] Скачать торрент
Скачать торрент
[ Размер 12.36 КБ / Просмотров 2 ]
Статус:
Проверен
 
.torrent скачан: 0 раз
Хэш: 759f78081d7e63b380877afe0659756e2b09e34a
Размер: 1.09 ГБ (1 171 848 148 байт)
Стать Автором раздачи
 
 
Раздал: 0 байт
Скачал: 0 байт
Ратио: Inf.
Сообщения: 42425
Зарегистрирован: 05 окт 2014, 15:23


  • Похожие торренты
    Ответы
    Просмотры
    Последнее сообщение

Вернуться в Кино СССР, Советской России, Российской республики (1917-1991)

Ресурс не предоставляет электронные версии произведений, а занимается лишь коллекционированием и каталогизацией ссылок, присылаемых и публикуемых на форуме нашими читателями. Если вы являетесь правообладателем какого-либо представленного материала и не желаете чтобы ссылка на него находилась в нашем каталоге, свяжитесь с нами и мы незамедлительно удалим её. Файлы для обмена на трекере предоставлены пользователями сайта, и администрация не несёт ответственности за их содержание. Просьба не заливать файлы, защищенные авторскими правами, а также файлы нелегального содержания!
cron