Приходите завтра... (1962) HDTVRip 720p от New-Team | Цветная версия

 
 Статистика раздачи 
Размер: 2.91 ГБ   |  Зарегистрирован: 13 окт 2018, 12:07   |   .torrent скачан: 0 раз
Сидеров: 1  [ 0 байт/сек ]     Личеров: 0  [ 0 байт/сек ]  
  

Приходите завтра... (1962) HDTVRip 720p от New-Team | Цветная версия

Сообщение apple2000 » 13 окт 2018, 13:30

Страна: СССР
Год выпуска: 1962
Студия: Одесская киностудия

Жанр: драма, мелодрама, комедия, музыка
Продолжительность: 01:32:33

Перевод: не требуется
Оригинальная аудиодорожка: русский
Cубтитры: нет

Режиссер: Евгений Ташков

В ролях:
Екатерина Савинова, Анатолий Папанов, Юрий Горобец, Антонина Максимова, Надежда Животова, Александр Ширвиндт, Юрий Белов, Борис Бибиков...
Об актёрах подробней

Описание:
Простая и обаятельная девушка Фрося Бурлакова приезжает из сибирской деревушки в Москву поступать в консерваторию. У Фроси сильный и красивый голос, она подвижна и артистична, а потому ее заветная мечта должна непременно сбыться. Прием в консерваторию уже закончен, но Фрося не собирается опускать руки. Проведя в консерватории не один день, Фрося все же добивается, чтобы ее прослушал известный профессор...






Исходник: HDTV 1080i
Тип релиза: HDTVRip 720p
Контейнер: MKV

Видео: 1280x720 (16:9), 25,000 fps, H264 ~ 4113 kbps avg, 0.179 bit/pixel
Аудио: 48 kHz, Dolby Digital AC3 5.1 ch, 384.00 kbps

Раздача от:
Общее
Полное имя : Prihodite.zavtra...1962.BDRip720p_[New-team]_by_AVP_Studio.mkv
Формат : Matroska
Версия формата : Version 2
Размер файла : 2,91 Гбайт
Продолжительность : 1 ч. 32 м.
Общий поток : 4498 Кбит/сек
Дата кодирования : UTC 2018-10-12 23:09:25
Программа кодирования : mkvmerge v6.1.0 ('Old Devil') built on Mar 4 2013 09:10:42
Библиотека кодирования : libebml v1.3.0 + libmatroska v1.4.0

Видео
Идентификатор : 1
Формат : AVC
Формат/Информация : Advanced Video Codec
Профиль формата : High@L4.1
Настройки формата : CABAC / 8 Ref Frames
Параметр CABAC формата : Да
Параметр RefFrames формата : 8 кадров
Идентификатор кодека : V_MPEG4/ISO/AVC
Продолжительность : 1 ч. 32 м.
Битрейт : 4113 Кбит/сек
Ширина : 1280 пикселей
Высота : 720 пикселей
Соотношение сторон : 16:9
Режим частоты кадров : Постоянный
Частота кадров : 25,000 кадров/сек
Цветовое пространство : YUV
Субдискретизация насыщенности : 4:2:0
Битовая глубина : 8 бит
Тип развёртки : Прогрессивная
Бит/(Пиксели*Кадры) : 0.179
Размер потока : 2,60 Гбайт (89%)
Библиотека кодирования : x264 core 157 r2932 303c484
Настройки программы : cabac=1 / ref=8 / deblock=1:-3:-3 / analyse=0x3:0x133 / me=umh / subme=10 / psy=1 / psy_rd=1.00:0.00 / mixed_ref=1 / me_range=32 / chroma_me=1 / trellis=2 / 8x8dct=1 / cqm=0 / deadzone=21,11 / fast_pskip=1 / chroma_qp_offset=-2 / threads=6 / lookahead_threads=1 / sliced_threads=0 / nr=0 / decimate=0 / interlaced=0 / bluray_compat=0 / constrained_intra=0 / bframes=8 / b_pyramid=2 / b_adapt=2 / b_bias=0 / direct=3 / weightb=1 / open_gop=0 / weightp=2 / keyint=250 / keyint_min=25 / scenecut=40 / intra_refresh=0 / rc=2pass / mbtree=0 / bitrate=4113 / ratetol=1.0 / qcomp=0.60 / qpmin=0 / qpmax=69 / qpstep=4 / cplxblur=20.0 / qblur=0.5 / ip_ratio=1.40 / pb_ratio=1.30 / aq=1:1.00
Default : Да
Forced : Нет

Аудио
Идентификатор : 2
Формат : AC-3
Формат/Информация : Audio Coding 3
Коммерческое название : Dolby Digital
Идентификатор кодека : A_AC3
Продолжительность : 1 ч. 32 м.
Вид битрейта : Постоянный
Битрейт : 384 Кбит/сек
Каналы : 6 каналов
Channel layout : L R C LFE Ls Rs
Частота : 48,0 КГц
Частота кадров : 31,250 кадров/сек (1536 SPF)
Битовая глубина : 16 бит
Метод сжатия : С потерями
Размер потока : 254 Мбайт (9%)
Default : Да
Forced : Нет


 
Не забывайте говорить Спасибо. Не уходите с раздачи!   
Торрент: Зарегистрирован [13 окт 2018, 12:07] Скачать торрент
Скачать торрент
[ Размер 15.88 КБ / Просмотров 1 ]
Статус:
Проверен
 
.torrent скачан: 0 раз
Хэш: 67875bb2730b86555b2d6e023595c1b23176d033
Размер: 2.91 ГБ (3 122 434 500 байт)
Стать Автором раздачи
 
 
Раздал: 0 байт
Скачал: 0 байт
Ратио: Inf.
Сообщения: 42425
Зарегистрирован: 05 окт 2014, 15:23


  • Похожие торренты
    Ответы
    Просмотры
    Последнее сообщение

Вернуться в Кино СССР, Советской России, Российской республики (1917-1991)

Ресурс не предоставляет электронные версии произведений, а занимается лишь коллекционированием и каталогизацией ссылок, присылаемых и публикуемых на форуме нашими читателями. Если вы являетесь правообладателем какого-либо представленного материала и не желаете чтобы ссылка на него находилась в нашем каталоге, свяжитесь с нами и мы незамедлительно удалим её. Файлы для обмена на трекере предоставлены пользователями сайта, и администрация не несёт ответственности за их содержание. Просьба не заливать файлы, защищенные авторскими правами, а также файлы нелегального содержания!
cron