Т(о)варищи на века / Best F(r)iends Volume 1 (2017) WEBRip | L2

 
 Статистика раздачи 
Размер: 1.5 ГБ   |  Зарегистрирован: 12 окт 2018, 13:45   |   .torrent скачан: 0 раз
Сидеров: 1  [ 0 байт/сек ]     Личеров: 0  [ 0 байт/сек ]  
  

Т(о)варищи на века / Best F(r)iends Volume 1 (2017) WEBRip | L2

Сообщение Nasty » 12 окт 2018, 14:19

Информация о фильме
Название: Т(о)варищи на века
Оригинальное название: Best F(r)iends Volume 1
Год выхода: 2017
Жанр: Триллер, комедия
Режиссер: Джастин МакГрегор
В ролях: Грег Сестеро, Томми Вайсо, Кристен СтивенсонПино, Винс Джоливетт, Рик Эдвардс, Том Бисселл, Майкл Дэвис, Роберт Бриско Эванс, Друг Картера, Ангелина Гвидо и другие
О фильме:
Бродяга Джон Кортина становится помощником и лучшим другом чудаковатого гробовщика Харви Льюиса. Новая работа открывает для Джона неожиданно заманчивые перспективы. А всё благодаря золотым зубам покойников. Предавая дружбу, Джон решает украсть драгоценную «коллекцию», собранную Харви.



Страна: США, Sestero Pictures
Продолжительность: 01:43:56
Перевод: Любительский (двухголосый закадровый) | HiWay Grope

Файл
Кодек: XviD
Качество: WEBRip
Видео: 720x384, 23.976 fps, ~1666 kbps, 0.25 bit/pixel
Звук:
Аудио rus: AC3, 48 kHz, 6 ch, 384 Kbps
Субтитры: отсутствуют

Реклама: присутствует

Семпл

General
Complete name : D:Best.Friends.Volume.1.2017.WEBRip.HiWayGropeBest.Friends.Volume.1.2017.WEBRip.HiWayGrope.avi
Format : AVI
Format/Info : Audio Video Interleave
File size : 1.50 GiB
Duration : 1 h 43 min
Overall bit rate : 2 060 kb/s
Writing application : VirtualDubMod 1.5.10.3 (build 2550/release)
Writing library : VirtualDubMod build 2550/release

Video
ID : 0
Format : MPEG-4 Visual
Format profile : Simple@L5
Format settings : BVOP1
Format settings, BVOP : 1
Format settings, QPel : No
Format settings, GMC : No warppoints
Format settings, Matrix : Default (MPEG)
Codec ID : XVID
Codec ID/Hint : XviD
Duration : 1 h 43 min
Bit rate : 1 666 kb/s
Width : 720 pixels
Height : 384 pixels
Display aspect ratio : 1.907
Frame rate : 23.976 (24000/1001) FPS
Color space : YUV
Chroma subsampling : 4:2:0
Bit depth : 8 bits
Scan type : Progressive
Compression mode : Lossy
Bits/(Pixel*Frame) : 0.251
Stream size : 1.21 GiB (81%)
Writing library : XviD 67

Audio
ID : 1
Format : AC-3
Format/Info : Audio Coding 3
Codec ID : 2000
Duration : 1 h 43 min
Bit rate mode : Constant
Bit rate : 384 kb/s
Channel(s) : 6 channels
Channel positions : Front: L C R, Side: L R, LFE
Sampling rate : 48.0 kHz
Frame rate : 31.250 FPS (1536 SPF)
Bit depth : 16 bits
Compression mode : Lossy
Stream size : 286 MiB (19%)
Alignment : Split accross interleaves
Interleave, duration : 42 ms (1.00 video frame)
Interleave, preload duration : 500 ms
Service kind : Complete Main



Релиз от: HiWay Grope
 
Не забывайте говорить Спасибо. Не уходите с раздачи!   
Торрент: Зарегистрирован [12 окт 2018, 13:45] Скачать торрент
Скачать торрент
[ Размер 15.97 КБ / Просмотров 1 ]
Статус:
Проверен
 
.torrent скачан: 0 раз
Хэш: 711b801bc0d7b3666e0d04249213278ccc4877ac
Размер: 1.5 ГБ (1 605 750 784 байт)
Стать Автором раздачи
 
 
Раздал: 100 ГБ
Скачал: 0 байт
Ратио: Seed.
Сообщения: 27987
Зарегистрирован: 09 апр 2015, 19:56


  • Похожие торренты
    Ответы
    Просмотры
    Последнее сообщение

Вернуться в Зарубежное кино

Ресурс не предоставляет электронные версии произведений, а занимается лишь коллекционированием и каталогизацией ссылок, присылаемых и публикуемых на форуме нашими читателями. Если вы являетесь правообладателем какого-либо представленного материала и не желаете чтобы ссылка на него находилась в нашем каталоге, свяжитесь с нами и мы незамедлительно удалим её. Файлы для обмена на трекере предоставлены пользователями сайта, и администрация не несёт ответственности за их содержание. Просьба не заливать файлы, защищенные авторскими правами, а также файлы нелегального содержания!
cron