Шерлок Холмс / Sherlock Holmes (2009) BDRip-HEVC 1080p от KORSAR | D, P2, A

 
 Статистика раздачи 
Размер: 11.79 ГБ   |  Зарегистрирован: 09 окт 2018, 23:49   |   .torrent скачан: 0 раз
Сидеров: 1  [ 0 байт/сек ]     Личеров: 0  [ 0 байт/сек ]  
  

Шерлок Холмс / Sherlock Holmes (2009) BDRip-HEVC 1080p от KORSAR | D, P2, A

Сообщение Nasty » 10 окт 2018, 00:21

Информация о фильме
Название: Шерлок Холмс
Оригинальное название: Sherlock Holmes
Год выхода: 2009
Жанр: комедия, приключения, криминал
Режиссер: Гай Ричи
В ролях: Роберт Дауни мл. , Джуд Лоу , Рэйчел МакАдамс , Марк Стронг , Эдди Марсан , Роберт Мэйллет , Джеральдин Джеймс , Келли Райлли , Уильям Хьюстон , Ганс Мэтисон , Джеймс Фокс , Уильям Хоуп

О фильме: Величайший в истории сыщик Шерлок Холмс вместе со своим верным соратником Ватсоном вступают в схватку, требующую нешуточной физической и умственной подготовки, ведь их враг представляет угрозу для всего Лондона.



Страна: США
Студия: Village Roadshow Pictures
Продолжительность: 02:08:24
Перевод: Профессиональный дублированный, профессиональный двухголосый, авторский одноголосый

Файл
Кодек: HEVC x265
Качество: BDRip-HEVC 1080p
Видео: 1920x1080 (16:9), 10,3 Мбит/сек, 0.208 бит/(Пиксели*Кадры), 23.976 (24000/1001) кадр/сек, HEVC (Main10@L.4.1@High) 10 бит
Звук:
Аудио1: Русская, AC3 448 Кбит/сек, 6 канала(ов),16bit 48,0 КГц Дублированный (Blu-ray CEE)
Аудио2: Русская, AC3 640 Кбит/сек, 6 канала(ов),16bit 48,0 КГц DVO (BBC Saint-Petersburg)
Аудио3: Русская, AC3 640 Кбит/сек, 6 канала(ов),16bit 48,0 КГц AVO (Сербин)
Аудио4: Русская, AC3 448 Кбит/сек, 6 канала(ов),16bit 48,0 КГц AVO (Гаврилов)
Аудио5: English, AC3 640 Кбит/сек, 6 канала(ов),16bit 48,0 КГц
Субтитры: Русские (форсированные, полные), English
Навигация по главам: Есть

General
Unique ID : 209237105216457784544327769307940290044 (0x9D6999C3A14BDA3C8980A52ED78E7DFC)
Complete name : F:HEVCSherlock HolmesSherlock Holmes (2009) BDRip-HEVC 1080p - KORSAR.mkv
Format : Matroska
Format version : Version 4 / Version 2
File size : 11.8 GiB
Duration : 2 h 8 min
Overall bit rate : 13.1 Mb/s
Movie name : rip_by_Cthulhu
Encoded date : UTC 2018-10-08 15:49:09
Writing application : mkvmerge v26.0.0 ('In The Game') 64-bit
Writing library : libebml v1.3.6 + libmatroska v1.4.9
Cover : Yes
Attachments : cover.jpg

Video
ID : 1
Format : HEVC
Format/Info : High Efficiency Video Coding
Format profile : Main 10@L4.1@High
Codec ID : V_MPEGH/ISO/HEVC
Duration : 2 h 8 min
Bit rate : 10.3 Mb/s
Width : 1 920 pixels
Height : 1 080 pixels
Display aspect ratio : 16:9
Frame rate mode : Constant
Frame rate : 23.976 (24000/1001) FPS
Color space : YUV
Chroma subsampling : 4:2:0
Bit depth : 10 bits
Bits/(Pixel*Frame) : 0.208
Stream size : 9.26 GiB (79%)
Writing library : x265 2.8+10-703eade86b53:[Windows][GCC 8.1.0][64 bit] 10bit
Encoding settings : cpuid=1176575 / frame-threads=4 / numa-pools=16 / wpp / no-pmode / no-pme / no-psnr / no-ssim / log-level=2 / input-csp=1 / input-res=1920x1080 / interlace=0 / total-frames=184729 / level-idc=41 / high-tier=1 / uhd-bd=0 / ref=5 / no-allow-non-conformance / no-repeat-headers / annexb / no-aud / no-hrd / info / hash=0 / no-temporal-layers / open-gop / min-keyint=23 / keyint=240 / gop-lookahead=0 / bframes=9 / b-adapt=2 / b-pyramid / bframe-bias=0 / rc-lookahead=60 / lookahead-slices=0 / scenecut=40 / radl=0 / no-intra-refresh / ctu=32 / min-cu-size=8 / rect / amp / max-tu-size=32 / tu-inter-depth=4 / tu-intra-depth=4 / limit-tu=1 / rdoq-level=2 / dynamic-rd=0.00 / no-ssim-rd / signhide / no-tskip / nr-intra=0 / nr-inter=0 / no-constrained-intra / no-strong-intra-smoothing / max-merge=5 / limit-refs=2 / limit-modes / me=3 / subme=7 / merange=57 / temporal-mvp / weightp / weightb / no-analyze-src-pics / deblock=-3:-2 / no-sao / no-sao-non-deblock / rd=6 / no-early-skip / rskip / no-fast-intra / no-tskip-fast / no-cu-lossless / b-intra / no-splitrd-skip / rdpenalty=0 / psy-rd=2.00 / psy-rdoq=1.00 / no-rd-refine / no-lossless / cbqpoffs=0 / crqpoffs=0 / rc=crf / crf=20.0 / qcomp=0.60 / qpstep=4 / stats-write=0 / stats-read=0 / vbv-maxrate=50000 / vbv-bufsize=50000 / vbv-init=0.9 / crf-max=0.0 / crf-min=0.0 / ipratio=1.40 / pbratio=1.30 / aq-mode=2 / aq-strength=0.90 / no-cutree / zone-count=0 / no-strict-cbr / qg-size=32 / no-rc-grain / qpmax=69 / qpmin=0 / no-const-vbv / sar=1 / overscan=0 / videoformat=5 / range=0 / colorprim=1 / transfer=1 / colormatrix=1 / chromaloc=0 / display-window=0 / max-cll=0,0 / min-luma=0 / max-luma=1023 / log2-max-poc-lsb=8 / vui-timing-info / vui-hrd-info / slices=1 / no-opt-qp-pps / no-opt-ref-list-length-pps / no-multi-pass-opt-rps / scenecut-bias=0.05 / no-opt-cu-delta-qp / aq-motion / no-hdr / no-hdr-opt / no-dhdr10-opt / no-idr-recovery-sei / analysis-reuse-level=5 / scale-factor=0 / refine-intra=0 / refine-inter=0 / refine-mv=0 / no-limit-sao / ctu-info=0 / no-lowpass-dct / refine-mv-type=0 / copy-pic=1 / max-ausize-factor=1.0 / no-dynamic-refine / no-single-sei
Language : English
Default : Yes
Forced : No
Color range : Limited
Color primaries : BT.709
Transfer characteristics : BT.709
Matrix coefficients : BT.709

Audio #1
ID : 2
Format : AC-3
Format/Info : Audio Coding 3
Mode extension : CM (complete main)
Format settings, Endianness : Big
Codec ID : A_AC3
Duration : 2 h 8 min
Bit rate mode : Constant
Bit rate : 448 kb/s
Channel(s) : 6 channels
Channel positions : Front: L C R, Side: L R, LFE
Sampling rate : 48.0 kHz
Frame rate : 31.250 FPS (1536 spf)
Compression mode : Lossy
Stream size : 411 MiB (3%)
Title : DUB (Blu-ray CEE)
Language : Russian
Default : Yes
Forced : No

Audio #2
ID : 3
Format : AC-3
Format/Info : Audio Coding 3
Mode extension : CM (complete main)
Format settings, Endianness : Big
Codec ID : A_AC3
Duration : 2 h 8 min
Bit rate mode : Constant
Bit rate : 640 kb/s
Channel(s) : 6 channels
Channel positions : Front: L C R, Side: L R, LFE
Sampling rate : 48.0 kHz
Frame rate : 31.250 FPS (1536 spf)
Compression mode : Lossy
Stream size : 588 MiB (5%)
Title : DVO (BBC Saint-Petersburg)
Language : Russian
Default : No
Forced : No

Audio #3
ID : 4
Format : AC-3
Format/Info : Audio Coding 3
Mode extension : CM (complete main)
Format settings, Endianness : Big
Codec ID : A_AC3
Duration : 2 h 8 min
Bit rate mode : Constant
Bit rate : 640 kb/s
Channel(s) : 6 channels
Channel positions : Front: L C R, Side: L R, LFE
Sampling rate : 48.0 kHz
Frame rate : 31.250 FPS (1536 spf)
Compression mode : Lossy
Stream size : 588 MiB (5%)
Title : AVO (Сербин)
Language : Russian
Default : No
Forced : No

Audio #4
ID : 5
Format : AC-3
Format/Info : Audio Coding 3
Mode extension : CM (complete main)
Format settings, Endianness : Big
Codec ID : A_AC3
Duration : 2 h 8 min
Bit rate mode : Constant
Bit rate : 448 kb/s
Channel(s) : 6 channels
Channel positions : Front: L C R, Side: L R, LFE
Sampling rate : 48.0 kHz
Frame rate : 31.250 FPS (1536 spf)
Compression mode : Lossy
Stream size : 411 MiB (3%)
Title : AVO (Гаврилов)
Language : Russian
Default : No
Forced : No

Audio #5
ID : 6
Format : AC-3
Format/Info : Audio Coding 3
Mode extension : CM (complete main)
Format settings, Endianness : Big
Codec ID : A_AC3
Duration : 2 h 8 min
Bit rate mode : Constant
Bit rate : 640 kb/s
Channel(s) : 6 channels
Channel positions : Front: L C R, Side: L R, LFE
Sampling rate : 48.0 kHz
Frame rate : 31.250 FPS (1536 spf)
Compression mode : Lossy
Stream size : 588 MiB (5%)
Title : Original
Language : English
Default : No
Forced : No

Text #1
ID : 7
Format : UTF-8
Codec ID : S_TEXT/UTF8
Codec ID/Info : UTF-8 Plain Text
Duration : 1 h 54 min
Bit rate : 1 b/s
Count of elements : 35
Stream size : 1.54 KiB (0%)
Title : Rus Forced
Language : Russian
Default : No
Forced : No

Text #2
ID : 8
Format : UTF-8
Codec ID : S_TEXT/UTF8
Codec ID/Info : UTF-8 Plain Text
Duration : 2 h 6 min
Bit rate : 90 b/s
Count of elements : 1448
Stream size : 84.1 KiB (0%)
Title : Rus (Blu-ray CEE)
Language : Russian
Default : No
Forced : No

Text #3
ID : 9
Format : UTF-8
Codec ID : S_TEXT/UTF8
Codec ID/Info : UTF-8 Plain Text
Duration : 1 h 58 min
Bit rate : 57 b/s
Count of elements : 1409
Stream size : 50.2 KiB (0%)
Title : eng
Language : English
Default : No
Forced : No

Menu
00:00:00.000 : en:Catching a Killer
00:06:46.531 : en:Case of Stagnation
00:11:30.231 : en:Telling About Mary
00:15:41.607 : en:Blow by Blow
00:19:08.898 : en:Last Request
00:23:29.074 : en:Bound Together
00:27:49.876 : en:Miss Adler For Hire
00:32:01.253 : en:The Irene I Know
00:37:08.434 : en:Resurrection
00:40:50.406 : en:Apt Prediction
00:44:37.216 : en:Sorcery and Science
00:47:39.690 : en:Meat or Potatoes?
00:50:52.174 : en:Giving Up the Ship
00:55:17.606 : en:Friends in High Places
00:59:04.457 : en:Blackwood's Lineage
01:03:04.781 : en:Mutual Danger
01:06:08.047 : en:Dead and Bath
01:11:14.103 : en:Remake the World
01:14:39.350 : en:On Purpose
01:17:36.318 : en:Lambs to Slaughter
01:23:35.093 : en:Trap For Three
01:26:06.953 : en:The Best You Can Do
01:30:57.160 : en:Next Target
01:35:15.376 : en:Smoking Out a Coward
01:39:45.980 : en:Countdown to Noon
01:44:18.002 : en:Bell and Death Tolls
01:48:21.954 : en:Cutting a Conjurer Loose
01:54:02.711 : en:My Weak Spot
01:56:07.502 : en:Moriarty's Mark
02:00:26.177 : en:End Credits



Релиз от: Cthulhu
 
Не забывайте говорить Спасибо. Не уходите с раздачи!   
Торрент: Зарегистрирован [09 окт 2018, 23:49] Скачать торрент
Скачать торрент
[ Размер 59.89 КБ / Просмотров 0 ]
Статус:
Проверен
 
.torrent скачан: 0 раз
Хэш: 9b4ce5abca4b4847e4de88724a5afda615308e0f
Размер: 11.79 ГБ (12 662 122 803 байт)
Стать Автором раздачи
 
 
Раздал: 100 ГБ
Скачал: 0 байт
Ратио: Seed.
Сообщения: 27987
Зарегистрирован: 09 апр 2015, 19:56


  • Похожие торренты
    Ответы
    Просмотры
    Последнее сообщение

Вернуться в Зарубежные фильмы 2006-2010 года

Ресурс не предоставляет электронные версии произведений, а занимается лишь коллекционированием и каталогизацией ссылок, присылаемых и публикуемых на форуме нашими читателями. Если вы являетесь правообладателем какого-либо представленного материала и не желаете чтобы ссылка на него находилась в нашем каталоге, свяжитесь с нами и мы незамедлительно удалим её. Файлы для обмена на трекере предоставлены пользователями сайта, и администрация не несёт ответственности за их содержание. Просьба не заливать файлы, защищенные авторскими правами, а также файлы нелегального содержания!
cron