Сводные братья / Step Brothers (2008) BDRemux 2160p от MediaClub | 4K | HDR | D

 
 Статистика раздачи 
Размер: 48.34 ГБ   |  Зарегистрирован: 09 окт 2018, 22:50   |   .torrent скачан: 0 раз
Сидеров: 1  [ 0 байт/сек ]     Личеров: 0  [ 0 байт/сек ]  
  

Сводные братья / Step Brothers (2008) BDRemux 2160p от MediaClub | 4K | HDR | D

Сообщение Nasty » 09 окт 2018, 23:40

Информация о фильме
Название: Сводные братья
Оригинальное название: Step Brothers
Год выхода: 2008
Жанр: Комедия
Режиссер: Адам МакКей
В ролях: Уилл Феррелл, Джон С. Райлли, Мэри Стинберген, Ричард Дженкинс, Адам Скотт, Кэтрин Хан, Андреа Сэвадж, Лури Постон, Элизабет Йозамп, Логан Манус, Трэвис Т. Флори, Лили Роуз МакКэй, Шира Пивен, Сет Моррис, Уэйн Федерман, Мария Кьюбан, Даниэль Шнайдер, Джиллиан Вигмэн, Брайан Хаски, Адам МакКей, Сет Роген, Крис Хенчи, Мэри Катрин Хэмелин, Йен Робертс, Эрика Виттина Филлипс, Фил ЛаМарр, Роб Риггл, Джейсон Дэвис, Паула Киллен, Кен Жонг, Орасио Санс, Кайл Фелтс, Джейк Зиманский, Мэтт Уолш, Дмитрий Шуйлер-Линч, Харлесс Брюс, Брент Уайт, Стив Сильвери

О фильме:
Бреннан Хаф — 39-летний домосед и Дейл Добак — 40-летний лежебока неожиданно становятся братьями. Родители-одиночки, всю жизнь обеспечивающие полный пансион своим чадам, решили скрепить союз узами брака после судьбоносной встречи на конференции. Новоиспеченная семья собирается под одной крышей с одной же спальней для сыновей. Естественно, такой расклад не устраивает избалованных «мальчиков» и они начинают ненавидеть друг друга лютой ненавистью. Но неожиданно они обнаруживают, что у них не так уж и много различий. Что, подобно 12-летним подросткам, они оказались заперты во взрослых телах. И тут-то, когда невероятная дружба начала скреплять их братские узы, родители решили развестись. Удастся ли теперь кому-либо разлучить братьев? Или они сами выведут кого угодно из игры?

Страна: США
Студия: Apatow Productions, Columbia Pictures, Gary Sanchez Productions, Mosaic Media Group, Relativity Media
Продолжительность: 01:45:31
Перевод: Дублированный

Файл
Кодек: H.265
Качество: BDRemux 2160p
Видео: HEVC HDR, 60.5 Mбит/с, 3840x2160, 23.976 кадр/с
Звук:
Русский (AC3, 6 ch, 640 Кбит/с) / Дублированный (Blu-ray EUR)
Украинский (AC3, 6 ch, 640 Кбит/с) / Дублированный (Blu-ray EUR)
Английский (TrueHD+Atmos, 8 ch, 3041 Кбит/с)
Английский (AC3, 6 ch, 640 Кбит/с)
Субтитры: Русские (Форсированные, полные), английские (Full, SDH), украинские(форсированные, полные)

Внимание: Расширенная версия не имеет полного дубляжа,в непереведённых местах включаются форсированные субтитры,включенные по умалчивании.

Семпл

General
Unique ID : 319819082235029608637408447846263664878 (0xF09AEA2B8086EC45B6E705E9E6A5B0EE)
Complete name : C:UsersPublicVideosSample VideosFilmyStep.Brothers.2008.BDRemux.2160p.HDR.MediaClub.mkv
Format : Matroska
Format version : Version 4
File size : 48.3 GiB
Duration : 1 h 45 min
Overall bit rate mode : Variable
Overall bit rate : 65.6 Mb/s
Encoded date : UTC 2018-10-09 18:58:57
Writing application : mkvmerge v25.0.0 ('Prog Noir') 64-bit
Writing library : libebml v1.3.6 + libmatroska v1.4.9
Cover : Yes
Attachments : cover.jpg

Video
ID : 1
Format : HEVC
Format/Info : High Efficiency Video Coding
Commercial name : HDR10
Format profile : Main 10@L5.1@High
Codec ID : V_MPEGH/ISO/HEVC
Duration : 1 h 45 min
Bit rate : 60.5 Mb/s
Width : 3 840 pixels
Height : 2 160 pixels
Display aspect ratio : 16:9
Frame rate mode : Constant
Frame rate : 23.976 (24000/1001) FPS
Color space : YUV
Chroma subsampling : 4:2:0 (Type 2)
Bit depth : 10 bits
Bits/(Pixel*Frame) : 0.304
Stream size : 44.6 GiB (92%)
Title : BDRemux.2160p.hdr by Silverok
Default : Yes
Forced : No
Color range : Limited
Color primaries : BT.2020
Transfer characteristics : PQ
Matrix coefficients : BT.2020 non-constant
Mastering display color primaries : Display P3
Mastering display luminance : min: 0.0050 cd/m2, max: 4000 cd/m2
Maximum Content Light Level : 1038 cd/m2
Maximum Frame-Average Light Level : 345 cd/m2

Audio #1
ID : 2
Format : AC-3
Format/Info : Audio Coding 3
Commercial name : Dolby Digital
Codec ID : A_AC3
Duration : 1 h 45 min
Bit rate mode : Constant
Bit rate : 640 kb/s
Channel(s) : 6 channels
Channel layout : L R C LFE Ls Rs
Sampling rate : 48.0 kHz
Frame rate : 31.250 FPS (1536 SPF)
Bit depth : 16 bits
Compression mode : Lossy
Stream size : 483 MiB (1%)
Title : Дублированный (Blu-ray EUR)
Language : Russian
Service kind : Complete Main
Default : Yes
Forced : No

Audio #2
ID : 3
Format : AC-3
Format/Info : Audio Coding 3
Commercial name : Dolby Digital
Codec ID : A_AC3
Duration : 1 h 45 min
Bit rate mode : Constant
Bit rate : 640 kb/s
Channel(s) : 6 channels
Channel layout : L R C LFE Ls Rs
Sampling rate : 48.0 kHz
Frame rate : 31.250 FPS (1536 SPF)
Bit depth : 16 bits
Compression mode : Lossy
Stream size : 483 MiB (1%)
Title : Дублированный (Blu-ray EUR)
Language : Ukrainian
Service kind : Complete Main
Default : No
Forced : No

Audio #3
ID : 4
Format : MLP FBA 16-ch
Format/Info : Meridian Lossless Packing FBA with 16-channel presentation
Commercial name : Dolby TrueHD with Dolby Atmos
Codec ID : A_TRUEHD
Duration : 1 h 45 min
Bit rate mode : Variable
Bit rate : 3 041 kb/s
Maximum bit rate : 3 822 kb/s
Channel(s) : 8 channels
Channel layout : L R C LFE Ls Rs Lb Rb
Sampling rate : 48.0 kHz
Frame rate : 1 200.000 FPS (40 SPF)
Compression mode : Lossless
Stream size : 2.24 GiB (5%)
Language : English
Default : No
Forced : No
Number of dynamic objects : 11
Bed channel count : 1 channel
Bed channel configuration : LFE

Audio #4
ID : 5
Format : AC-3
Format/Info : Audio Coding 3
Commercial name : Dolby Digital
Codec ID : A_AC3
Duration : 1 h 45 min
Bit rate mode : Constant
Bit rate : 640 kb/s
Channel(s) : 6 channels
Channel layout : L R C LFE Ls Rs
Sampling rate : 48.0 kHz
Frame rate : 31.250 FPS (1536 SPF)
Bit depth : 16 bits
Compression mode : Lossy
Stream size : 483 MiB (1%)
Language : English
Service kind : Complete Main
Default : No
Forced : No

Text #1
ID : 6
Format : UTF-8
Codec ID : S_TEXT/UTF8
Codec ID/Info : UTF-8 Plain Text
Duration : 1 h 45 min
Bit rate : 25 b/s
Count of elements : 408
Stream size : 19.8 KiB (0%)
Title : Forced
Language : Russian
Default : Yes
Forced : Yes

Text #2
ID : 7
Format : UTF-8
Codec ID : S_TEXT/UTF8
Codec ID/Info : UTF-8 Plain Text
Duration : 1 h 45 min
Bit rate : 106 b/s
Count of elements : 1714
Stream size : 81.7 KiB (0%)
Title : Full
Language : Russian
Default : No
Forced : No

Text #3
ID : 8
Format : UTF-8
Codec ID : S_TEXT/UTF8
Codec ID/Info : UTF-8 Plain Text
Duration : 1 h 44 min
Bit rate : 83 b/s
Count of elements : 1676
Stream size : 63.7 KiB (0%)
Title : Full
Language : English
Default : No
Forced : No

Text #4
ID : 9
Format : UTF-8
Codec ID : S_TEXT/UTF8
Codec ID/Info : UTF-8 Plain Text
Duration : 1 h 44 min
Bit rate : 97 b/s
Count of elements : 2033
Stream size : 74.7 KiB (0%)
Title : SDH
Language : English
Default : No
Forced : No

Text #5
ID : 10
Format : PGS
Muxing mode : zlib
Codec ID : S_HDMV/PGS
Codec ID/Info : Picture based subtitle format used on BDs/HD-DVDs
Duration : 1 h 37 min
Bit rate : 11.6 kb/s
Count of elements : 826
Stream size : 8.06 MiB (0%)
Title : Forced
Language : Ukrainian
Default : No
Forced : No

Text #6
ID : 11
Format : PGS
Muxing mode : zlib
Codec ID : S_HDMV/PGS
Codec ID/Info : Picture based subtitle format used on BDs/HD-DVDs
Duration : 1 h 45 min
Bit rate : 45.1 kb/s
Count of elements : 3442
Stream size : 33.9 MiB (0%)
Title : Full
Language : Ukrainian
Default : No
Forced : No

Menu
00:00:00.000 : en:Chapter 01
00:03:52.065 : en:Chapter 02
00:13:46.450 : en:Chapter 03
00:19:01.181 : en:Chapter 04
00:26:13.029 : en:Chapter 05
00:29:49.412 : en:Chapter 06
00:37:50.935 : en:Chapter 07
00:45:36.024 : en:Chapter 08
00:51:23.705 : en:Chapter 09
00:57:10.677 : en:Chapter 10
01:04:27.238 : en:Chapter 11
01:12:58.374 : en:Chapter 12
01:17:38.403 : en:Chapter 13
01:21:42.564 : en:Chapter 14
01:28:40.440 : en:Chapter 15
01:36:45.800 : en:Chapter 16


Релиз от: | Silverok
 
Не забывайте говорить Спасибо. Не уходите с раздачи!   
Торрент: Зарегистрирован [09 окт 2018, 22:50] Скачать торрент
Скачать торрент
[ Размер 121.74 КБ / Просмотров 0 ]
Статус:
Проверен
 
.torrent скачан: 0 раз
Хэш: 413d14b555e62036d3ccc957f59e7152170d3a7f
Размер: 48.34 ГБ (51 903 105 108 байт)
Стать Автором раздачи
 
 
Раздал: 100 ГБ
Скачал: 0 байт
Ратио: Seed.
Сообщения: 27987
Зарегистрирован: 09 апр 2015, 19:56


  • Похожие торренты
    Ответы
    Просмотры
    Последнее сообщение

Вернуться в Зарубежные фильмы 2006-2010 года

Ресурс не предоставляет электронные версии произведений, а занимается лишь коллекционированием и каталогизацией ссылок, присылаемых и публикуемых на форуме нашими читателями. Если вы являетесь правообладателем какого-либо представленного материала и не желаете чтобы ссылка на него находилась в нашем каталоге, свяжитесь с нами и мы незамедлительно удалим её. Файлы для обмена на трекере предоставлены пользователями сайта, и администрация не несёт ответственности за их содержание. Просьба не заливать файлы, защищенные авторскими правами, а также файлы нелегального содержания!
cron