Кодекс вора / The Code (2009) BDRip-AVC | D, P

 
 Статистика раздачи 
Размер: 2.17 ГБ   |  Зарегистрирован: 09 окт 2018, 20:28   |   .torrent скачан: 0 раз
Сидеров: 1  [ 0 байт/сек ]     Личеров: 0  [ 0 байт/сек ]  
  

Кодекс вора / The Code (2009) BDRip-AVC | D, P

Сообщение Nasty » 09 окт 2018, 20:54

Информация о фильме
Название: Код / Кодекс вора
Оригинальное название: Thick as Thieves / The Code
Год выхода: 2009
Жанр: триллер, криминал
Режиссер: Мими Ледер
В ролях: Морган Фримен, Антонио Бандерас, Рада Митчелл, Роберт Форстер, Раде Шербеджия, Майкл Хейден, Марсель Юрес, Гари Вернтц, Велизaр Бинев, Энтони Бирн

О фильме:
Кит Рипли, опытный вор из Нью-Йорка, приглашает из Майами молодого, но уже проявившего себя «коллегу», Габриэля Мартина. Рипли нужен напарник для кражи двух старинных и очень ценных яиц Фаберже. Они вместе с другими драгоценностями российской династии Романовых хранятся в хорошо защищенном сейфе. Каждое яйцо на черном рынке стоит двадцать миллионов долларов. Украв раритет, Рипли планирует вернуть долг криминальному боссу Ники. Сумеет ли вор расплатиться по счетам, если в планы «преступной парочки» хочет вмешаться лейтенант полиции Вебер?



Страна: США, Германия
Студия: Millennium Films, Revelations Entertainment, Equity Pictures Medienfonds GmbH & Co. KG IV, Nu Image Entertainment GmbH, Emmett/Furla Films, Grosvenor Park Media
Продолжительность: 01:43:28
Перевод: Профессиональный (дублированный) + профессиональный (многоголосый закадровый)
Субтитры: Русские, английские

Файл
Качество: BDRip-AVC (BD-Remux)
Видео: 1168x496 (2.35); 2556 Kbps; 23,976 fps; 0,190 bpp
Аудио 1: 48 kHz, AC3 Dolby Digital, 2/0 (L,R) ch, ~224 kbps (DUB) - РЕН ТВ
Аудио 2: 48 kHz, AC3 Dolby Digital, 2/0 (L,R) ch, ~224 kbps (MVO) - Россия
Навигация по главам: есть

General
Unique ID : 82399151752716600204123657728132048796 (0x3DFD7FD70EB60056CEE4396125BAE79C)
Complete name : F:КиношкаНе удалятьКодекс вора.2009.BDRIP-AVC.mkv
Format : Matroska
Format version : Version 4
File size : 2.17 GiB
Duration : 1 h 43 min
Overall bit rate : 3 007 kb/s
Movie name : Кодекс вора
Encoded date : UTC 2018-10-09 17:19:20
Writing application : mkvmerge v27.0.0 ('Metropolis') 64-bit
Writing library : libebml v1.3.6 + libmatroska v1.4.9
Cover : Yes
Attachments : cover.jpg

Video
ID : 1
Format : AVC
Format/Info : Advanced Video Codec
Format profile : High@L4
Format settings : CABAC / 12 Ref Frames
Format settings, CABAC : Yes
Format settings, ReFrames : 12 frames
Codec ID : V_MPEG4/ISO/AVC
Duration : 1 h 43 min
Bit rate : 2 556 kb/s
Width : 1 168 pixels
Height : 496 pixels
Display aspect ratio : 2.35:1
Frame rate mode : Constant
Frame rate : 23.976 FPS
Color space : YUV
Chroma subsampling : 4:2:0
Bit depth : 8 bits
Scan type : Progressive
Bits/(Pixel*Frame) : 0.184
Stream size : 1.85 GiB (85%)
Title : The Code (2008)
Writing library : x264 core 78 r1302 6169a3f
Encoding settings : cabac=1 / ref=12 / deblock=1:-2:-1 / analyse=0x3:0x113 / me=umh / subme=10 / psy=1 / psy_rd=1.0:0.2 / mixed_ref=1 / me_range=24 / chroma_me=1 / trellis=2 / 8x8dct=1 / cqm=0 / deadzone=21,11 / chroma_qp_offset=-3 / threads=6 / nr=0 / decimate=1 / mbaff=0 / constrained_intra=0 / bframes=7 / b_pyramid=2 / b_adapt=2 / b_bias=0 / direct=1 / wpredb=1 / keyint=250 / keyint_min=25 / scenecut=40 / rc=crf / mbtree=0 / crf=19.5 / qcomp=0.60 / qpmin=10 / qpmax=51 / qpstep=4 / ip_ratio=1.40 / pb_ratio=1.30 / aq=2:1.00
Language : English
Default : Yes
Forced : No
Color range : Limited
Matrix coefficients : BT.709

Audio #1
ID : 2
Format : AC-3
Format/Info : Audio Coding 3
Commercial name : Dolby Digital
Codec ID : A_AC3
Duration : 1 h 43 min
Bit rate mode : Constant
Bit rate : 224 kb/s
Channel(s) : 2 channels
Channel layout : L R
Sampling rate : 48.0 kHz
Frame rate : 31.250 FPS (1536 SPF)
Bit depth : 16 bits
Compression mode : Lossy
Stream size : 166 MiB (7%)
Title : DUB_РЕН-тв
Language : Russian
Service kind : Complete Main
Default : Yes
Forced : No

Audio #2
ID : 3
Format : AC-3
Format/Info : Audio Coding 3
Commercial name : Dolby Digital
Codec ID : A_AC3
Duration : 1 h 43 min
Bit rate mode : Constant
Bit rate : 224 kb/s
Channel(s) : 2 channels
Channel layout : L R
Sampling rate : 48.0 kHz
Frame rate : 31.250 FPS (1536 SPF)
Bit depth : 16 bits
Compression mode : Lossy
Stream size : 166 MiB (7%)
Title : MVO_Россия
Language : Russian
Service kind : Complete Main
Default : No
Forced : No

Text #1
ID : 4
Format : UTF-8
Codec ID : S_TEXT/UTF8
Codec ID/Info : UTF-8 Plain Text
Duration : 1 h 37 min
Bit rate : 80 b/s
Count of elements : 1137
Stream size : 57.6 KiB (0%)
Title : RUS
Language : Russian
Default : No
Forced : No

Text #2
ID : 5
Format : UTF-8
Codec ID : S_TEXT/UTF8
Codec ID/Info : UTF-8 Plain Text
Duration : 1 h 33 min
Bit rate : 51 b/s
Count of elements : 1076
Stream size : 35.4 KiB (0%)
Title : ENG
Language : English
Default : No
Forced : No

Menu
00:00:00.000 : en:Main Titles
00:09:32.238 : en:Stay Anonymous
00:17:49.694 : en:Call This Interest
00:23:42.588 : en:Taking Chances
00:31:04.571 : en:Cop for a Night
00:41:45.336 : en:Call Off Your Dogs
00:51:09.483 : en:Get In
00:55:35.666 : en:Twenty-Two Hundred
01:03:54.330 : en:Cracking the Safe
01:14:55.449 : en:Even Exchange
01:24:14.258 : en:Same Sources
01:32:51.065 : en:End Credits
 
Не забывайте говорить Спасибо. Не уходите с раздачи!   
Торрент: Зарегистрирован [09 окт 2018, 20:28] Скачать торрент
Скачать торрент
[ Размер 14.22 КБ / Просмотров 0 ]
Статус:
Проверен
 
.torrent скачан: 0 раз
Хэш: 67c92b98753db41339cc6bf83b061bcd405c0563
Размер: 2.17 ГБ (2 333 269 220 байт)
Стать Автором раздачи
 
 
Раздал: 100 ГБ
Скачал: 0 байт
Ратио: Seed.
Сообщения: 34822
Зарегистрирован: 09 апр 2015, 19:56


  • Похожие торренты
    Ответы
    Просмотры
    Последнее сообщение

Вернуться в Зарубежные фильмы 2006-2010 года

Ресурс не предоставляет электронные версии произведений, а занимается лишь коллекционированием и каталогизацией ссылок, присылаемых и публикуемых на форуме нашими читателями. Если вы являетесь правообладателем какого-либо представленного материала и не желаете чтобы ссылка на него находилась в нашем каталоге, свяжитесь с нами и мы незамедлительно удалим её. Файлы для обмена на трекере предоставлены пользователями сайта, и администрация не несёт ответственности за их содержание. Просьба не заливать файлы, защищенные авторскими правами, а также файлы нелегального содержания!
cron