Возврат / Cashback (2006) HDRip-AVC от ExKinoRay | P2

 
 Статистика раздачи 
Размер: 745.4 МБ   |  Зарегистрирован: 08 окт 2018, 07:34   |   .torrent скачан: 0 раз
Сидеров: 1  [ 0 байт/сек ]     Личеров: 0  [ 0 байт/сек ]  
  

Возврат / Cashback (2006) HDRip-AVC от ExKinoRay | P2

Сообщение Nasty » 08 окт 2018, 08:25

Информация о фильме
Название: Возврат (Сдача, Вернуть наличкой)
Оригинальное название: Cashback
Год выпуска: 2006
Жанр: Комедия, драма, мелодрама
Режиссер: Шон Эллис
В ролях: Шон Биггерстафф, Эмилия Фокс, Стюарт Гудвин, Майкл Лэмбурн, Майкл Диксон, Мишель Райан, Эрика Эллис, Джей Бауэн, Шон Эванс, Кеннет Фахи, Стэн Эллис, Кэти Болл, Селеста Ходж, Ниа Робертс, Хатти Ример, Кинвара Бальфур, Чери Николь, Винни Ли, Лене Босейджер, Фрэнк Хескет, Хейли-Мари Коппин, Кили Хэзелл, Кристин Фуллер, Мишель Бентли, Гари Бисон, Катарина Олссон, Гэйл Дадли, Генриетта Басс, Саманта Блум

О фильме :
Переживая болезненное расставание с любимой, Бен впадает в бессонницу. В освободившиеся 8 часов он начинает работать в ночную смену местного супермаркета, где главной задачей обслуживающего персонала является «времяубийство». Неожиданно Бен обнаруживает в себе необычную способность останавливать время, что даёт толчок его художественному таланту.



Страна: Великобритания
Студия: Left Turn Films, Lip Sync Productions, Ugly Duckling Films
Продолжительность: 01:42:03
Перевод: Профессиональный (двухголосый, закадровый) | Студия Инис

Файл
Формат: MKV
Качество: HDRip-AVC
Видео: MPEG-4 AVC, 768x328, ~ 945 Кбит/с
Аудио: AAC-HE, 2 ch, ~ 76 Кбит/с
Субтитры: Русские, английские

Общее
Уникальный идентификатор : 189721458173149217250402989591680648299 (0x8EBB0613BFC730399ED9D7992E96046B)
Полное имя : D:MOVIESCashback.2006.ExKinoRay.mkv
Формат : Matroska
Версия формата : Version 4 / Version 2
Размер файла : 745 Мбайт
Продолжительность : 1 ч. 42 м.
Общий поток : 1021 Кбит/сек
Дата кодирования : UTC 2018-10-08 04:17:19
Программа кодирования : mkvmerge v15.0.0 ('Duel with the Devil') 64-bit
Библиотека кодирования : libebml v1.3.5 + libmatroska v1.4.5

Видео
Идентификатор : 1
Формат : AVC
Формат/Информация : Advanced Video Codec
Профиль формата : High@L4.1
Параметр CABAC формата : Да
Параметр RefFrames формата : 12 кадров
Идентификатор кодека : V_MPEG4/ISO/AVC
Продолжительность : 1 ч. 42 м.
Битрейт : 945 Кбит/сек
Ширина : 768 пикселей
Высота : 328 пикселей
Соотношение сторон : 2,35:1
Режим частоты кадров : Постоянный
Частота кадров : 23,976 (24000/1001) кадра/сек
Цветовое пространство : YUV
Субдискретизация насыщенности : 4:2:0
Битовая глубина : 8 бит
Тип развёртки : Прогрессивная
Бит/(Пиксели*Кадры) : 0.156
Размер потока : 689 Мбайт (92%)
Библиотека кодирования : x264 core 152 r2851kMod ba24899
Настройки программы : cabac=1 / ref=12 / deblock=1:-3:-2 / analyse=0x3:0x133 / me=umh / subme=10 / psy=1 / fade_compensate=0.00 / psy_rd=1.00:0.18 / mixed_ref=1 / me_range=32 / chroma_me=1 / trellis=2 / 8x8dct=1 / cqm=0 / deadzone=21,11 / fast_pskip=0 / chroma_qp_offset=-3 / threads=6 / lookahead_threads=1 / sliced_threads=0 / nr=0 / decimate=0 / interlaced=0 / bluray_compat=0 / constrained_intra=0 / bframes=11 / b_pyramid=2 / b_adapt=2 / b_bias=0 / direct=3 / weightb=1 / open_gop=0 / weightp=2 / keyint=240 / keyint_min=23 / scenecut=40 / intra_refresh=0 / rc_lookahead=40 / rc=2pass / mbtree=1 / bitrate=945 / ratetol=1.0 / qcomp=0.60 / qpmin=0 / qpmax=69 / qpstep=4 / cplxblur=20.0 / qblur=0.5 / ip_ratio=1.40 / aq=3:1.00
Default : Да
Forced : Нет

Аудио
Идентификатор : 2
Формат : AAC
Формат/Информация : Advanced Audio Codec
Профиль формата : HE-AAC / LC
Идентификатор кодека : A_AAC
Продолжительность : 1 ч. 41 м.
Битрейт : 76,0 Кбит/сек
Каналы : 2 канала
Расположение каналов : Front: L R
Частота : 48,0 КГц / 24,0 КГц
Частота кадров : 23,438 кадра/сек (1024 SPF)
Метод сжатия : С потерями
Задержка видео : 31 мс.
Размер потока : 55,2 Мбайт (7%)
Default : Да
Forced : Нет

Текст #1
Идентификатор : 3
Формат : UTF-8
Идентификатор кодека : S_TEXT/UTF8
Идентификатор кодека/Информация : UTF-8 Plain Text
Продолжительность : 1 ч. 37 м.
Битрейт : 82 бит/сек
ElementCount : 907
Размер потока : 58,7 Кбайт (0%)
Заголовок : Russian
Язык : Russian
Default : Нет
Forced : Нет

Текст #2
Идентификатор : 4
Формат : UTF-8
Идентификатор кодека : S_TEXT/UTF8
Идентификатор кодека/Информация : UTF-8 Plain Text
Продолжительность : 1 ч. 37 м.
Битрейт : 50 бит/сек
ElementCount : 1054
Размер потока : 36,0 Кбайт (0%)
Заголовок : English
Язык : English
Default : Нет
Forced : Нет

Текст #3
Идентификатор : 5
Формат : UTF-8
Идентификатор кодека : S_TEXT/UTF8
Идентификатор кодека/Информация : UTF-8 Plain Text
Продолжительность : 1 ч. 37 м.
Битрейт : 53 бит/сек
ElementCount : 1141
Размер потока : 38,0 Кбайт (0%)
Заголовок : English-SDH
Язык : English
Default : Нет
Forced : Нет

Меню
00:00:00.000 : en:00:00:00.000
00:01:20.747 : en:00:01:20.747
00:04:24.639 : en:00:04:24.639
00:10:39.973 : en:00:10:39.973
00:13:39.152 : en:00:13:39.152
00:16:52.678 : en:00:16:52.678
00:21:46.305 : en:00:21:46.305
00:25:01.500 : en:00:25:01.500
00:29:24.763 : en:00:29:24.763
00:32:43.503 : en:00:32:43.503
00:34:31.236 : en:00:34:31.236
00:40:06.362 : en:00:40:06.362
00:44:31.419 : en:00:44:31.419
00:47:32.308 : en:00:47:32.308
00:55:26.823 : en:00:55:26.823
00:58:53.780 : en:00:58:53.780
01:03:36.229 : en:01:03:36.229
01:11:02.467 : en:01:11:02.467
01:13:21.355 : en:01:13:21.355
01:17:19.802 : en:01:17:19.802
01:21:34.973 : en:01:21:34.973
01:28:49.908 : en:01:28:49.908
01:30:38.683 : en:01:30:38.683
01:35:57.752 : en:01:35:57.752


 
Не забывайте говорить Спасибо. Не уходите с раздачи!   
Торрент: Зарегистрирован [08 окт 2018, 07:34] Скачать торрент
Скачать торрент
[ Размер 15.6 КБ / Просмотров 1 ]
Статус:
Проверен
 
.torrent скачан: 0 раз
Хэш: ef4738db1373e3acfe30d568016865f933371810
Размер: 745.4 МБ (781 608 091 байт)
Стать Автором раздачи
 
 
Раздал: 100 ГБ
Скачал: 0 байт
Ратио: Seed.
Сообщения: 34822
Зарегистрирован: 09 апр 2015, 19:56


  • Похожие торренты
    Ответы
    Просмотры
    Последнее сообщение

Вернуться в Зарубежные фильмы 2006-2010 года

Ресурс не предоставляет электронные версии произведений, а занимается лишь коллекционированием и каталогизацией ссылок, присылаемых и публикуемых на форуме нашими читателями. Если вы являетесь правообладателем какого-либо представленного материала и не желаете чтобы ссылка на него находилась в нашем каталоге, свяжитесь с нами и мы незамедлительно удалим её. Файлы для обмена на трекере предоставлены пользователями сайта, и администрация не несёт ответственности за их содержание. Просьба не заливать файлы, защищенные авторскими правами, а также файлы нелегального содержания!
cron