За облаками / Atrás das Nuvens (2007) DVDRip-AVC | A

 
 Статистика раздачи 
Размер: 1.53 ГБ   |  Зарегистрирован: 07 окт 2018, 12:25   |   .torrent скачан: 0 раз
Сидеров: 1  [ 0 байт/сек ]     Личеров: 0  [ 0 байт/сек ]  
  

За облаками / Atrás das Nuvens (2007) DVDRip-AVC | A

Сообщение Nasty » 07 окт 2018, 13:08

Информация о фильме
Название: За облаками
Оригинальное название: Atrás das Nuvens
Год выхода: 2007
Жанр: драма, семейный
Режиссер: Жоржи Кейрога
В ролях: Николау Брейнер, Рубен Силва, София Грило, Кармен Сантос, Жозе Эдуарду, Грасиано Диас, Жозе Пинту

О фильме:
9-летний Пауло, рано лишившийся отца, живет вместе с матерью в Лиссабоне. Однажды мальчик находит фотографии с дедушкой, которого Пауло не знает. Но мама Пауло не решается рассказать сыну что-либо о нем, пока мальчик не подрастет. А Пауло было любопытно. Очень любопытно. И тогда мальчик пустился на поиски своего одинокого и эксцентричного деда…



Производство: Португалия / Filmes do Tejo
Продолжительность: 01:23:19
Перевод: авторский одноголосый (Сергей Кузнецов)

Файл
Качество: DVDRip-AVC
Формат: MKV
Видео: MPEG-4 AVC, 1024x576 (16:9), 25.000 fps, 2241 kbps, 0.152 bit/pixel
Аудио #1: русский, AC3 2.0, 48 kHz, 192 kbps
Аудио #2: португальский, AC3 2.0, 48 kHz, 192 kbps
Субтитры: английские вшитые отключаемые (VobSub)

Общее
Уникальный идентификатор : 235639020896762703979793200798167849258 (0xB1466CB547BBDCB4B3AF8FC41925D92A)
Полное имя : Atrаs.Das.Nuvens.2007.DVDRip.mkv
Формат : Matroska
Версия формата : Version 4 / Version 2
Размер файла : 1,53 Гбайт
Продолжительность : 1 ч. 23 м.
Общий поток : 2628 Кбит/сек
Дата кодирования : UTC 2017-03-30T10:37:15Z
Программа кодирования : mkvmerge v7.9.0 ('Birds') 64bit
Библиотека кодирования : Lavf57.7.2

Видео
Идентификатор : 1
Формат : AVC
Формат/Информация : Advanced Video Codec
Профиль формата : High@L4.1
Параметр CABAC формата : Да
Параметр ReFrames формата : 7 кадров
Идентификатор кодека : V_MPEG4/ISO/AVC
Продолжительность : 1 ч. 23 м.
Битрейт : 2241 Кбит/сек
Ширина : 1024 пикселя
Высота : 576 пикселей
Соотношение сторон : 16:9
Режим частоты кадров : Постоянный
Частота кадров : 25,000 кадров/сек
Цветовое пространство : YUV
Субдискретизация насыщенности : 4:2:0
Битовая глубина : 8 бит
Тип развёртки : Прогрессивная
Бит/(Пиксели*Кадры) : 0.152
Размер потока : 1,28 Гбайт (83%)
Библиотека кодирования : x264 core 148 r2708 86b7198
Настройки программы : cabac=1 / ref=7 / deblock=1:-3:-3 / analyse=0x3:0x113 / me=umh / subme=10 / psy=1 / psy_rd=1.00:0.00 / mixed_ref=1 / me_range=24 / chroma_me=1 / trellis=2 / 8x8dct=1 / cqm=0 / deadzone=21,11 / fast_pskip=1 / chroma_qp_offset=-2 / threads=6 / lookahead_threads=1 / sliced_threads=0 / nr=0 / decimate=1 / interlaced=0 / bluray_compat=0 / constrained_intra=0 / bframes=3 / b_pyramid=0 / b_adapt=1 / b_bias=0 / direct=1 / weightb=1 / open_gop=0 / weightp=2 / keyint=250 / keyint_min=25 / scenecut=40 / intra_refresh=0 / rc_lookahead=10 / rc=2pass / mbtree=1 / bitrate=2241 / ratetol=1.0 / qcomp=0.60 / qpmin=0 / qpmax=69 / qpstep=4 / cplxblur=20.0 / qblur=0.5 / vbv_maxrate=62500 / vbv_bufsize=78125 / nal_hrd=none / filler=0 / ip_ratio=1.40 / aq=1:1.00
Default : Да
Forced : Нет
Цветовой диапазон : Limited
Основные цвета : BT.601 PAL
Характеристики трансфера : BT.709
Коэффициенты матрицы : BT.601

Аудио #1
Идентификатор : 2
Формат : AC-3
Формат/Информация : Audio Coding 3
Расширение режима : CM (complete main)
Параметр Endianness формата : Big
Идентификатор кодека : A_AC3
Продолжительность : 1 ч. 23 м.
Вид битрейта : Постоянный
Битрейт : 192 Кбит/сек
Каналы : 2 канала
Расположение каналов : Front: L R
Частота : 48,0 КГц
Метод сжатия : С потерями
Задержка видео : -5 мс.
Размер потока : 114 Мбайт (7%)
Язык : Russian
Default : Да
Forced : Нет

Аудио #2
Идентификатор : 3
Формат : AC-3
Формат/Информация : Audio Coding 3
Расширение режима : CM (complete main)
Параметр Endianness формата : Big
Идентификатор кодека : A_AC3
Продолжительность : 1 ч. 23 м.
Вид битрейта : Постоянный
Битрейт : 192 Кбит/сек
Каналы : 2 канала
Расположение каналов : Front: L R
Частота : 48,0 КГц
Метод сжатия : С потерями
Задержка видео : -5 мс.
Размер потока : 114 Мбайт (7%)
Язык : Portuguese
Default : Нет
Forced : Нет

Текст
Идентификатор : 4
Формат : VobSub
Режим смешивания : zlib
Идентификатор кодека : S_VOBSUB
Идентификатор кодека/Информация : Picture based subtitle format used on DVDs
Язык : English
Default : Да
Forced : Нет

Меню
00:00:00.120 : :Chapter 1
00:07:31.760 : :Chapter 2
00:15:18.320 : :Chapter 3
00:22:21.200 : :Chapter 4
00:29:57.200 : :Chapter 5
00:37:34.160 : :Chapter 6
00:44:28.880 : :Chapter 7
00:52:45.200 : :Chapter 8
01:00:44.240 : :Chapter 9
01:06:47.600 : :Chapter 10
01:14:21.200 : :Chapter 11
01:20:45.680 : :Chapter 12
 
Не забывайте говорить Спасибо. Не уходите с раздачи!   
Торрент: Зарегистрирован [07 окт 2018, 12:25] Скачать торрент
Скачать торрент
[ Размер 16.28 КБ / Просмотров 1 ]
Статус:
Проверен
 
.torrent скачан: 0 раз
Хэш: defeb83de375386c1a9573fda3008ceef81bd485
Размер: 1.53 ГБ (1 642 360 624 байт)
Стать Автором раздачи
 
 
Раздал: 100 ГБ
Скачал: 0 байт
Ратио: Seed.
Сообщения: 27987
Зарегистрирован: 09 апр 2015, 19:56


  • Похожие торренты
    Ответы
    Просмотры
    Последнее сообщение

Вернуться в Зарубежные фильмы 2006-2010 года

Ресурс не предоставляет электронные версии произведений, а занимается лишь коллекционированием и каталогизацией ссылок, присылаемых и публикуемых на форуме нашими читателями. Если вы являетесь правообладателем какого-либо представленного материала и не желаете чтобы ссылка на него находилась в нашем каталоге, свяжитесь с нами и мы незамедлительно удалим её. Файлы для обмена на трекере предоставлены пользователями сайта, и администрация не несёт ответственности за их содержание. Просьба не заливать файлы, защищенные авторскими правами, а также файлы нелегального содержания!
cron