Вакансия на жертву / Vacancy (2007) HDRip от Portablius | A

 
 Статистика раздачи 
Размер: 742.62 МБ   |  Зарегистрирован: 06 окт 2018, 14:00   |   .torrent скачан: 0 раз
Сидеров: 1  [ 0 байт/сек ]     Личеров: 0  [ 0 байт/сек ]  
  

Вакансия на жертву / Vacancy (2007) HDRip от Portablius | A

Сообщение Nasty » 06 окт 2018, 14:25

Информация о фильме
Название: Вакансия на жертву
Оригинальное название: Vacancy
Год выхода: 2007
Жанр: Ужасы, триллер
Режиссер: Нимрод Антал
В ролях: Кейт Бекинсейл, Люк Уилсон, Фрэнк Уэйли, Итэн Эмбри, Скотт Дж. Андерсон, Марк Каселла, Дэвид Доути, Норм Комптон, Кэрин Мовер, Миган Годфри, Ким Стис, Эндрю Фисцелла, Дэйл Вэддингтон Хоровиц, Эрнест Мишко, Брайан Росс, Чевон Хикс, Чак Ламб, Кэри Мур, Ричи Варга

О фильме: Когда посреди пустынной дороги у Дэвида и Эмми сломалась машина, супруги были вынуждены остановиться на ночь в маленьком придорожном отеле. Просматривая кассеты, которые нашлись в номере, они с изумлением обнаружили, что эти кошмарные садистские фильмы сняты именно в той самой комнате, где они находятся. Вне себя от ужаса, они пытаются бежать, но скрытые камеры, установленные по всему отелю, фиксируют каждое их движение, и каждый их шаг становится известен тем, кто намерен сделать Дэвида и Эмми главными героями очередного фильма ужасов....


Страна: США
Продолжительность: 01:25:06
Перевод: Авторский (одноголосый, закадровый) Евгений Гаевский
Субтитры: Нет

Файл
Кодек: XviD
Качество: HDRip
Видео: 720x304 (2.37:1), 23.976 fps, XviD build 73 ~1082 kbps avg, 0.21 bit/pixel
Звук: 48 kHz, MPEG Layer 3, 2 ch, ~128.00 kbps avg

General
Complete name : Vacancy.2007.HDRip.ot.Portablius.avi
Format : AVI
Format/Info : Audio Video Interleave
File size : 743 MiB
Duration : 1 h 25 min
Overall bit rate : 1 220 kb/s
Writing application : VirtualDubMod 1.5.10.3 | www.virtualdub-fr.org || (build 2550/release)
Writing library : VirtualDubMod build 2550/release

Video
ID : 0
Format : MPEG-4 Visual
Format profile : Advanced Simple@L5
Format settings, BVOP : 1
Format settings, QPel : No
Format settings, GMC : No warppoints
Format settings, Matrix : Custom
Codec ID : XVID
Codec ID/Hint : XviD
Duration : 1 h 25 min
Bit rate : 1 083 kb/s
Width : 720 pixels
Height : 304 pixels
Display aspect ratio : 2.35:1
Frame rate : 23.976 (24000/1001) FPS
Color space : YUV
Chroma subsampling : 4:2:0
Bit depth : 8 bits
Scan type : Progressive
Compression mode : Lossy
Bits/(Pixel*Frame) : 0.206
Stream size : 659 MiB (89%)
Writing library : XviD 73

Audio
ID : 1
Format : MPEG Audio
Format version : Version 1
Format profile : Layer 3
Codec ID : 55
Codec ID/Hint : MP3
Duration : 1 h 25 min
Bit rate mode : Constant
Bit rate : 128 kb/s
Channel(s) : 2 channels
Sampling rate : 48.0 kHz
Compression mode : Lossy
Stream size : 77.9 MiB (10%)
Alignment : Aligned on interleaves
Interleave, duration : 42 ms (1.00 video frame)
Interleave, preload duratio : 504 ms
Writing library : LAME3.99r
Encoding settings : -m s -V 4 -q 2 -lowpass 17 -b 128

 
Не забывайте говорить Спасибо. Не уходите с раздачи!   
Торрент: Зарегистрирован [06 окт 2018, 14:00] Скачать торрент
Скачать торрент
[ Размер 15.38 КБ / Просмотров 1 ]
Статус:
Проверен
 
.torrent скачан: 0 раз
Хэш: d19688faa9f98e8451fbbba5c441a4e81215692f
Размер: 742.62 МБ (778 696 704 байт)
Стать Автором раздачи
 
 
Раздал: 100 ГБ
Скачал: 0 байт
Ратио: Seed.
Сообщения: 34822
Зарегистрирован: 09 апр 2015, 19:56


  • Похожие торренты
    Ответы
    Просмотры
    Последнее сообщение

Вернуться в Зарубежные фильмы 2006-2010 года

Ресурс не предоставляет электронные версии произведений, а занимается лишь коллекционированием и каталогизацией ссылок, присылаемых и публикуемых на форуме нашими читателями. Если вы являетесь правообладателем какого-либо представленного материала и не желаете чтобы ссылка на него находилась в нашем каталоге, свяжитесь с нами и мы незамедлительно удалим её. Файлы для обмена на трекере предоставлены пользователями сайта, и администрация не несёт ответственности за их содержание. Просьба не заливать файлы, защищенные авторскими правами, а также файлы нелегального содержания!
cron