Восхождение пехотинца / Rise of the Footsoldier (2007) BDRip 1080p | Extended Version | А

 
 Статистика раздачи 
Размер: 13.43 ГБ   |  Зарегистрирован: 02 окт 2018, 22:09   |   .torrent скачан: 0 раз
Сидеров: 1  [ 0 байт/сек ]     Личеров: 0  [ 0 байт/сек ]  
  

Восхождение пехотинца / Rise of the Footsoldier (2007) BDRip 1080p | Extended Version | А

Сообщение Nasty » 02 окт 2018, 23:00

Название: Восхождение пехотинца
Оригинальное название: Rise of the Footsoldier
Год выхода: 2007

Страна: Великобритания
Студия: Carnaby International, Hanover Films
Продолжительность: 02:15:22
Жанр: боевик, драма, криминал, биография

Режиссер: Джулиан Джилби
В ролях: Риччи Харнетт, Терри Стоун, Крейг Фаирбрасс, Роланд Манукян, Фрэнк Харпер, Билли Мюррэй, Нил Мэскелл, Йен Вирго, Корали Роуз, Кирстон Вэрэйнг, Патрик Режис, ...

Перевод: авторский (одноголосый, закадровый) Карповский Антон Сергеевич

О фильме: Тяжелый фильм, изобилующий сценами насилия и обсценной лексикой в основе которого жизнь футбольного фаната Карлтона Лича, прошедшего весь сложный и жестокий путь от около-футбольного хулигана до полноценного английского мафиози. Всё начинается с футбола, когда болельщики Вест Хэма ездят по другим городам и вступают в уличные бои с фанатами других клубов. Выбивая зубы, раскраивая черепа, ломая руки, эти ребята попутно заняты поиском своего жизненного предназначения…


Кодек: x264
Качество: BDRip 1080p
Видео: 1912x1036, 13000 kbps, 23,976 fps
Аудио #1: AC-3, 6 ch, 448 kbps (Rus) - AVO Карповский Антон Сергеевич
Аудио #2: DTS, 6 ch, 768 kbps (Eng)
Субтитры: английские

Внимание! В фильме присутствует ненормативная лексика!

За исходник спасибо - ylnian

x264 [info]: frame I:1094 Avg QP:17.60 size:213865
x264 [info]: frame P:49408 Avg QP:20.38 size:101208
x264 [info]: frame B:144211 Avg QP:22.27 size: 55148
x264 [info]: consecutive B-frames: 5.3% 6.4% 11.6% 14.6% 11.3% 37.0% 3.4% 1.0% 3.0% 1.2% 1.5% 0.7% 0.8% 0.8% 1.4%

Общее
Уникальный идентификатор : 253498375701301367101263447785232350893 (0xBEB602E20B6802E6B8AE107DEE773EAD)
Полное имя : Восхождение пехотинца (Rise of the Footsoldier) 2007 BDRip 1080p.mkv
Формат : Matroska
Версия формата : Version 2
Размер файла : 13,4 Гбайт
Продолжительность : 2 ч. 15 м.
Общий поток : 14,2 Мбит/сек
Дата кодирования : UTC 2018-10-02 17:07:31
Программа кодирования : mkvmerge v4.0.0 ('The Stars were mine') сборка от Jun 6 2010 16:18:42
Библиотека кодирования : libebml v1.0.0 + libmatroska v1.0.0

Видео
Идентификатор : 1
Формат : AVC
Формат/Информация : Advanced Video Codec
Профиль формата : High@L4.1
Параметр CABAC формата : Да
Параметр ReFrames формата : 4 кадра
Идентификатор кодека : V_MPEG4/ISO/AVC
Продолжительность : 2 ч. 15 м.
Битрейт : 13,0 Мбит/сек
Ширина : 1912 пикселей
Высота : 1036 пикселей
Соотношение сторон : 1,85:1
Режим частоты кадров : Постоянный
Частота кадров : 23,976 (24000/1001) кадра/сек
Цветовое пространство : YUV
Субдискретизация насыщенности : 4:2:0
Битовая глубина : 8 бит
Тип развёртки : Прогрессивная
Бит/(Пиксели*Кадры) : 0.274
Размер потока : 12,0 Гбайт (89%)
Библиотека кодирования : x264 core 146 r2538 121396c
Настройки программы : cabac=1 / ref=4 / deblock=1:-2:-2 / analyse=0x3:0x133 / me=umh / subme=11 / psy=1 / psy_rd=1.00:0.00 / mixed_ref=1 / me_range=32 / chroma_me=1 / trellis=2 / 8x8dct=1 / cqm=0 / deadzone=21,11 / fast_pskip=0 / chroma_qp_offset=-2 / threads=12 / lookahead_threads=2 / sliced_threads=0 / nr=0 / decimate=0 / interlaced=0 / bluray_compat=0 / constrained_intra=0 / bframes=14 / b_pyramid=2 / b_adapt=2 / b_bias=0 / direct=3 / weightb=1 / open_gop=0 / weightp=2 / keyint=240 / keyint_min=23 / scenecut=40 / intra_refresh=0 / rc=2pass / mbtree=0 / bitrate=13000 / ratetol=1.0 / qcomp=0.60 / qpmin=0 / qpmax=69 / qpstep=4 / cplxblur=20.0 / qblur=0.5 / ip_ratio=1.40 / pb_ratio=1.30 / aq=2:0.80
Язык : English
Default : Нет
Forced : Нет

Аудио #1
Идентификатор : 2
Формат : AC-3
Формат/Информация : Audio Coding 3
Расширение режима : CM (complete main)
Параметр Endianness формата : Big
Идентификатор кодека : A_AC3
Продолжительность : 2 ч. 15 м.
Вид битрейта : Постоянный
Битрейт : 448 Кбит/сек
Каналы : 6 каналов
Расположение каналов : Front: L C R, Side: L R, LFE
Частота : 48,0 КГц
Частота кадров : 31,250 кадров/сек (1536 spf)
Метод сжатия : С потерями
Размер потока : 434 Мбайт (3%)
Заголовок : VO Карповский Антон Сергеевич
Язык : Russian
Default : Нет
Forced : Нет

Аудио #2
Идентификатор : 3
Формат : DTS
Формат/Информация : Digital Theater Systems
Режим : 16
Параметр Endianness формата : Big
Идентификатор кодека : A_DTS
Продолжительность : 2 ч. 15 м.
Вид битрейта : Постоянный
Битрейт : 768 Кбит/сек
Каналы : 6 каналов
Расположение каналов : Front: L C R, Side: L R, LFE
Частота : 48,0 КГц
Частота кадров : 93,750 кадра/сек (512 spf)
Битовая глубина : 16 бит
Метод сжатия : С потерями
Задержка видео : 11 мс.
Размер потока : 744 Мбайт (5%)
Язык : English
Default : Нет
Forced : Нет

Текст
Идентификатор : 4
Формат : UTF-8
Идентификатор кодека : S_TEXT/UTF8
Идентификатор кодека/Информация : UTF-8 Plain Text
Язык : English
Default : Нет
Forced : Нет


 
Не забывайте говорить Спасибо. Не уходите с раздачи!   
Торрент: Зарегистрирован [02 окт 2018, 22:09] Скачать торрент
Скачать торрент
[ Размер 68.13 КБ / Просмотров 3 ]
Статус:
Проверен
 
.torrent скачан: 0 раз
Хэш: 09158cd5a2a46372b05dc934d0ef2f5077c0fec3
Размер: 13.43 ГБ (14 424 798 083 байт)
Стать Автором раздачи
 
 
Раздал: 100 ГБ
Скачал: 0 байт
Ратио: Seed.
Сообщения: 27987
Зарегистрирован: 09 апр 2015, 19:56


  • Похожие торренты
    Ответы
    Просмотры
    Последнее сообщение

Вернуться в Зарубежные фильмы 2006-2010 года

Ресурс не предоставляет электронные версии произведений, а занимается лишь коллекционированием и каталогизацией ссылок, присылаемых и публикуемых на форуме нашими читателями. Если вы являетесь правообладателем какого-либо представленного материала и не желаете чтобы ссылка на него находилась в нашем каталоге, свяжитесь с нами и мы незамедлительно удалим её. Файлы для обмена на трекере предоставлены пользователями сайта, и администрация не несёт ответственности за их содержание. Просьба не заливать файлы, защищенные авторскими правами, а также файлы нелегального содержания!
cron